Welcome Guest ( Log In | Register )

> Forum rules / Правила раздела

Here go releases which can't go to New releases forums due lack of information, stolen links or incorrect data and just founded in other sites links with minimum info. Reissue of this releases through Add release form with added/corrected data, info and own links highly welcomed.

Сюда уходят релизы, не пропущенные в основные релизные форумы по причинам отсутствия, недостаточности или неверности/некорректности сопровождающей информации, содержащие ссылки, указывающие на файлы, залитые не автором темы, а так же просто найденные где-то ссылки с минимумом информации. Переоформление тем отсюда через форму Добавления релиза с перезаливкой ссылок крайне приветствуется.

 
Reply to this topicStart new topic
> Phthisis - Phthisis [ep] (2018), Blackened Death
post Oct 17 2019, 13:10:35
Post #1

Девять Литров
*********
Group: Металариец
Posts: 974
Releases: 357
From: Саранск
On Forums: 8 years 6 months
Thanks: 2877 time(s)
Russian Federation


(IMG:http://metalarea.org/images/audiocovers/2019_Oct/acov_tid328915_thumb.jpg)

*Artist: Phthisis
*Album: Phthisis [ep]
*Year: 2018
*Genre: Blackened Death Metal
*Country: United States (IMG:http://metalarea.org/forum/style_images/flags/United%20States.png)
*Format: mp3@CBR192kbps
*Size: 25MB

Tracklist:
1. Sacrificial Crematorium 04:04
2. Serpents of Ophiuchus 04:02
3. Clinical Dreams 04:34
4. Delirium Tremens 05:45
******************************
Total playing time: 18:25



Technical info
(IMG:http://metalarea.org/images/spectrogram/2019_Oct/be39f6b125f3c92e0a80c7a7d7c70c18.png)
Input File: 2 Serpents of Ophiuchus.mp3
Channels : 2
Sample Rate : 44100
Precision : 16-bit
Duration : 00:04:02.13 = 10677933 samples = 18159.8 CDDA sectors
File Size : 5.98M
Bit Rate : 197k
Sample Encoding: MPEG audio (layer I, II or III)
Comments :
Title=Serpents of Ophiuchus
Artist=Phthisis
Album=Phthisis (EP)
Tracknumber=2
Year=2018
Genre=Death Metal



Register
Go to the top of the page
  Insert nick Quick quote
+Quote Post

Reply to this topicStart new topic
2 User(s) are reading this topic (2 Guests and 0 Anonymous Users)
0 Members:

 



- Lo-Fi Version Support form
Copyrights and abuse reports form
Time is now: 16th November 2019 - 00:26:43