Welcome Guest ( Log In | Register )

> Rimfrost - Expedition: Darkness (2019), Black Metal (D)
post Oct 17 2019, 13:44:07
Post #1

Serial Uploader
Group Icon
Group: V.I.P
Posts: 37,603
Releases: 35775
From: Lithuania
On Forums: 13 years 2 weeks
Thanks: 432868 time(s)
Lithuania


(IMG:http://metalarea.org/images/audiocovers/2019_Oct/acov_tid328920_thumb.jpg)

*Artist: Rimfrost
*Album: Expedition: Darkness
*Year: 2019
*Genre: Black Metal
*Country: Sweden (IMG:http://metalarea.org/forum/style_images/flags/Sweden.png)
*Format: mp3@CBR320kbps
*Size: 108MB

Tracklist:
01. Rising of a Black Dawn 00:49
02. Damned Jaws 04:08
03 Sam-Hain 05:11
04 Dawnbreaker 06:03
05 Expedition: Darkness 07:06
06 Voorhees 05:51
07 Bloodnight 04:36
08 Natten 05:38
09 At the Blessing of the Damned 07:37
******************************
Total playing time: 46:59

(IMG:http://metalarea.org/images/myspace.png)



(IMG:http://metalarea.org/images/youtube.png)

Technical info
(IMG:http://metalarea.org/images/spectrogram/2019_Oct/d6edddc0099a0d32d1e77367536b456d.png)
Input File: 02 - Damned Jaws.mp3
Channels : 2
Sample Rate : 44100
Precision : 16-bit
Duration : 00:04:08.10 = 10941122 samples = 18607.4 CDDA sectors
File Size : 9.98M
Bit Rate : 322k
Sample Encoding: MPEG audio (layer I, II or III)
Comments :
Title=Damned Jaws
Artist=Rimfrost
Album=Expedition: Darkness
Tracknumber=2
Year=2019
Genre=Alternative/Indie Rock/Metal
Discnumber=1



Register


Go to the top of the page
  Insert nick Quick quote
+Quote Post
 
Start new topic
Replies (1 - 9)
post Oct 18 2019, 06:28:05
Post #2

Девять Литров
*********
Group: Металариец
Posts: 908
Releases: 0
On Forums: 7 years 10 months
Thanks: 688 time(s)
Australia


Awful heavy dancing pseudo black rock.


Go to the top of the page
  Insert nick Quick quote
+Quote Post
post Oct 18 2019, 08:50:12
Post #3

Русь Понад Усе!
**************
Group: Металариец
Posts: 4,349
Releases: 15
From: Украина
On Forums: 13 years 9 months
Thanks: 1770 time(s)
Ukraine


Не плохой клон Immortal хотя со своими фишками. Да и запись у них всегда идеальная (IMG:style_emoticons/default/smile1.gif)
Go to the top of the page
  Insert nick Quick quote
+Quote Post
post Oct 18 2019, 22:15:01
Post #4

melofags sniper
**************
Group: Металариец
Posts: 6,265
Releases: 0
On Forums: 13 years 3 months
Thanks: 6882 time(s)
Unknown


Immortal copy can only be heard on one song. The rest is more laughable than anything else.


Thanks:
Go to the top of the page
  Insert nick Quick quote
+Quote Post
post Oct 19 2019, 11:15:38
Post #5

Necromancer
Group Icon
Group: Curation team
Posts: 11,046
Releases: 271
From: Зеленоград
On Forums: 14 years 8 months
Thanks: 8913 time(s)
Russian Federation


Не тронуло, ваще никак. Альбом слабый.


Thanks:
Go to the top of the page
  Insert nick Quick quote
+Quote Post
post Oct 21 2019, 17:47:27
Post #6

MDM-Thrash Metal
**************
Group: Металариец
Posts: 10,395
Releases: 1229
From: Одесса
On Forums: 13 years 10 months
Thanks: 30207 time(s)
Ukraine


Если убрать вокал - то блэка вообще нет!


Thanks:
Go to the top of the page
  Insert nick Quick quote
+Quote Post
post Nov 1 2019, 20:06:10
Post #7

MDM-Thrash Metal
**************
Group: Металариец
Posts: 10,395
Releases: 1229
From: Одесса
On Forums: 13 years 10 months
Thanks: 30207 time(s)
Ukraine


ЦИТАТА(recber @ Oct 18 2019, 11:50:12) *
Не плохой клон Immortal

То что я слышу - далековато от блэка!!!


Thanks:
Go to the top of the page
  Insert nick Quick quote
+Quote Post
post Nov 30 2019, 09:24:13
Post #8

Мегадобряк
**************
Group: Металариец
Posts: 5,272
Releases: 1267
From: Харьков, Украина
On Forums: 14 years 8 months
Thanks: 9729 time(s)
Ukraine


в At the Blessing of the Damned припев офигенный
Go to the top of the page
  Insert nick Quick quote
+Quote Post
post Dec 6 2019, 16:55:15
Post #9

Мегаманьяк
***********
Group: Металариец
Posts: 1,744
Releases: 290
On Forums: 12 years 7 months
Thanks: 6616 time(s)
Russian Federation


FLAC img+cue+log+scans
Register


Thanks:
Go to the top of the page
  Insert nick Quick quote
+Quote Post
post Apr 20 2020, 20:06:34
Post #10

Литр
*
Group: Подсевший
Posts: 87
Releases: 0
From: Москва
On Forums: 1 year 5 months
Thanks: 2 time(s)
Russian Federation


Обновите ссылки, пожалуйста
Go to the top of the page
  Insert nick Quick quote
+Quote Post

Reply to this topicStart new topic
2 User(s) are reading this topic (2 Guests and 0 Anonymous Users)
0 Members:

 



- Lo-Fi Version Support form
Copyrights and abuse reports form
Time is now: 22nd June 2021 - 03:21:12