Welcome Guest ( Log In | Register )

> Releases Upload / Добавление релизов

Добавить релиз тут / Click here to add release
Рекомендованные обменники / Recommended file shares

> Filthdigger - Defied Mummified [ep] (2019), Old School Death Metal
post Oct 19 2019, 00:55:07
Post #1

Правь статус, ####!111
**************
Group: Металариец
Posts: 19,532
Releases: 13212
From: Г.Харьков
On Forums: 7 years 6 months
Thanks: 227962 time(s)
Unknown


(IMG:http://metalarea.org/images/audiocovers/2019_Oct/acov_tid329015_thumb.jpg)

*Artist: Filthdigger
*Album: Defied Mummified [ep]
*Year: 2019
*Genre: Old School Death Metal
*Country: Norway (IMG:http://metalarea.org/forum/style_images/flags/Norway.png)
*Format: mp3@CBR320kbps
*Size: 68MB

Tracklist:
1. Defied Mummified 05:29
2. Evil Witch (Of Hell) 03:12
3. Unholy Slaughter 04:08
4. The Living Dead 05:30
5. Ended Life 03:36
6. Rapid Descend 04:30
7. Nagasaki Nightmare 03:18
******************************
Total playing time: 29:43




Extended info
Violator Bass, Vocals
Deströyer Drums
Lobotomizör Guitars


Technical info
(IMG:http://metalarea.org/images/spectrogram/2019_Oct/8e124bd37876de0a1a417dd782a5b528.png)
Input File: 03 - Unholy Slaughter.mp3
Channels : 2
Sample Rate : 44100
Precision : 16-bit
Duration : 00:04:08.67 = 10966479 samples = 18650.5 CDDA sectors
File Size : 10.0M
Bit Rate : 323k
Sample Encoding: MPEG audio (layer I, II or III)
Comments :
Title=Unholy Slaughter
Artist=Filthdigger
Album=Defied Mummified
Tracknumber=3
Year=2019-10-13
Genre=Metal
Discnumber=1



Register


Go to the top of the page
  Insert nick Quick quote
+Quote Post
 
Start new topic
Replies (1 - 1)
post Oct 20 2019, 10:39:38
Post #2

Group: Дух
Posts: 1
Releases: 0
On Forums: 1 month 1 week
Thanks: 0 time(s)
Ukraine


Весьма Аутопсийно.
Go to the top of the page
  Insert nick Quick quote
+Quote Post

Reply to this topicStart new topic
2 User(s) are reading this topic (2 Guests and 0 Anonymous Users)
0 Members:

 



- Lo-Fi Version Support form
Copyrights and abuse reports form
Time is now: 19th November 2019 - 05:58:39