Welcome Guest ( Log In | Register )

 
Reply to this topicStart new topic
> Endless Drain - War Of My Hate (2019), Modern Thrash/Death Metal
post Oct 19 2019, 15:21:55
Post #1

Правь статус, ####!111
**************
Group: Металариец
Posts: 19,782
Releases: 13414
From: Г.Харьков
On Forums: 7 years 6 months
Thanks: 232030 time(s)
Unknown


(IMG:http://metalarea.org/images/audiocovers/2019_Oct/acov_tid329038_thumb.jpg)

*Artist: Endless Drain
*Album: War Of My Hate
*Year: 2019
*Genre: Modern Thrash/Death Metal
*Country: Czech Republic (IMG:http://metalarea.org/forum/style_images/flags/Czech%20Republic.png)
*Format: mp3@CBR320kbps
*Size: 71MB

Tracklist:
1. Desire
2. L.O.T.D.
3. Hunted
4. Execution Lights
5. Sky of Lies
6. Restless
7. Psycho Shot
8. War of My Hate
9. Lifeless Sight
******************************
Total playing time: 30:39



Extended info


Technical info
(IMG:http://metalarea.org/images/spectrogram/2019_Oct/984562917d415c9dcd563345a8d8b4ed.png)
Input File: 03 - Hunted.mp3
Channels : 2
Sample Rate : 44100
Precision : 16-bit
Duration : 00:03:46.13 = 9972245 samples = 16959.6 CDDA sectors
File Size : 9.19M
Bit Rate : 325k
Sample Encoding: MPEG audio (layer I, II or III)
Comments :
Title=Hunted
Artist=Endless Drain
Album=War of My Hate
Tracknumber=3
Year=2019



Register


Thanks:
Go to the top of the page
  Insert nick Quick quote
+Quote Post

Reply to this topicStart new topic
1 User(s) are reading this topic (1 Guests and 0 Anonymous Users)
0 Members:

 



- Lo-Fi Version Support form
Copyrights and abuse reports form
Time is now: 7th December 2019 - 11:06:27