Welcome Guest ( Log In | Register )

> Releases Upload / Добавление релизов

Добавить релиз тут / Click here to add release
Рекомендованные обменники / Recommended file shares

 
Reply to this topicStart new topic
> Remorseful - Exit (2019), Blackened Sludge/Doom Metal
post Oct 19 2019, 15:52:11
Post #1

Правь статус, ####!111
**************
Group: Металариец
Posts: 19,537
Releases: 13214
From: Г.Харьков
On Forums: 7 years 6 months
Thanks: 228012 time(s)
Unknown


(IMG:http://metalarea.org/images/audiocovers/2019_Oct/acov_tid329040_thumb.jpg)

*Artist: Remorseful
*Album: Exit
*Year: 2019
*Genre: Blackened Sludge/Doom Metal
*Country: United States (IMG:http://metalarea.org/forum/style_images/flags/United%20States.png)
*Format: mp3@CBR320kbps
*Size: 132MB

Tracklist:
1. Crumple 16:53
2. Through No Pollution 12:17
3. The Stomach 13:58
4. To Stand Corrected 14:46
******************************
Total playing time: 57:54



Extended info
Remorseful Everything


Technical info
(IMG:http://metalarea.org/images/spectrogram/2019_Oct/10a88c880c9df64a4db1adc8266f1a88.png)
Input File: 02 - Through No Pollution.mp3
Channels : 2
Sample Rate : 44100
Precision : 16-bit
Duration : 00:12:17.22 = 32511226 samples = 55291.2 CDDA sectors
File Size : 29.6M
Bit Rate : 321k
Sample Encoding: MPEG audio (layer I, II or III)
Comments :
Title=Through No Pollution
Artist=Remorseful
Album=Exit
Tracknumber=2
Year=2019



Register


Go to the top of the page
  Insert nick Quick quote
+Quote Post

Reply to this topicStart new topic
2 User(s) are reading this topic (2 Guests and 0 Anonymous Users)
0 Members:

 



- Lo-Fi Version Support form
Copyrights and abuse reports form
Time is now: 19th November 2019 - 19:59:57