Welcome Guest ( Log In | Register )

> Releases Upload / Добавление релизов

Добавить релиз тут / Click here to add release
Рекомендованные обменники / Recommended file shares

> Zodiac Ass - Where Injustice Turns Into Law (2019), Thrash/Groove Metal
post Oct 19 2019, 16:05:19
Post #1

Правь статус, ####!111
**************
Group: Металариец
Posts: 19,447
Releases: 13151
From: Г.Харьков
On Forums: 7 years 6 months
Thanks: 226821 time(s)
Unknown


(IMG:http://metalarea.org/images/audiocovers/2019_Oct/acov_tid329042_thumb.Jpg)

*Artist: Zodiac Ass
*Album: Where Injustice Turns Into Law
*Year: 2019
*Genre: Thrash/Groove Metal
*Country: International (IMG:http://metalarea.org/forum/style_images/flags/International.png)
*Format: mp3@CBR320kbps
*Size: 96MB

Tracklist:
1. Suicide of Jesus Christ 03:29
2. Where Injustice Turns into Law 02:40
3. Vengeance 05:31
4. Slaves and Masters 05:58
5. Trapped in Living Death 05:06
6. Under Angel Eyes 06:16
7. Kiss of a Butterfly 03:33
8. White Noise 04:51
9. Bavaustrian Metalbrothers 04:13
******************************
Total playing time: 41:37



Extended info
Austria / Germany
Thomas Schmidt Drums (2001-present)
See also: Wolfchant, ex-Low Down, ex-Underground Groove Front
Wolfgang Denk Vocals, Guitars (2001-present)
Josef "Sebbi" Altmann Guitars (2007-present)
See also: Collapsed Minds, Wolfchant (live)
Benjamin Jensen Bass (2019-present)
See also: Cemetery Dust, Rittmeister, ex-Behind the Mask, ex-Dioptas, ex-The Bastard Chronicles, ex-Tombstone Of Misery, ex-Die Dorks (live)


Technical info
(IMG:http://metalarea.org/images/spectrogram/2019_Oct/b010fcb21c2c3447607266ed6bd7dac8.png)
Input File: 3 - Vengeance.mp3
Channels : 2
Sample Rate : 44100
Precision : 16-bit
Duration : 00:05:30.62 = 14580518 samples = 24796.8 CDDA sectors
File Size : 13.3M
Bit Rate : 322k
Sample Encoding: MPEG audio (layer I, II or III)
Comments :
Title=Vengeance
Artist=Zodiac Ass
Album=Where Injustice Turns Into Law
Tracknumber=3
Year=2019
Genre=Metal
Discnumber=1



Register


Go to the top of the page
  Insert nick Quick quote
+Quote Post
 
Start new topic
Replies (1 - 1)
post Oct 21 2019, 06:15:01
Post #2

Group: Подсевший
Posts: 16
Releases: 0
On Forums: 12 years 5 months
Thanks: 4 time(s)
Unknown


До чего же нарядное название! )))
Go to the top of the page
  Insert nick Quick quote
+Quote Post

Reply to this topicStart new topic
2 User(s) are reading this topic (2 Guests and 0 Anonymous Users)
0 Members:

 



- Lo-Fi Version Support form
Copyrights and abuse reports form
Time is now: 13th November 2019 - 09:18:26