Welcome Guest ( Log In | Register )

> Releases Upload / Добавление релизов

Добавить релиз тут / Click here to add release
Рекомендованные обменники / Recommended file shares

> D.A.W.N. - Ende Ihrer (2019), Progressive Death Metal
post Oct 19 2019, 16:44:56
Post #1

Правь статус, ####!111
**************
Group: Металариец
Posts: 19,537
Releases: 13216
From: Г.Харьков
On Forums: 7 years 6 months
Thanks: 228016 time(s)
Unknown


(IMG:http://metalarea.org/images/audiocovers/2019_Oct/acov_tid329044_thumb.jpg)

*Artist: D.A.W.N.
*Album: Ende Ihrer
*Year: 2019
*Genre: Progressive Death Metal
*Country: Austria (IMG:http://metalarea.org/forum/style_images/flags/Austria.png)
*Format: mp3@CBR320kbps
*Size: 107MB

Tracklist:
1. Anfang 03:43 instrumental
2. Traum 1 06:49
3. Traum 2 04:54
4. Ende ihrer 08:56
5. Weit weit ist der Weg 07:25 instrumental
6. Das Leben ist wahr 04:17
7. Weiter nichts 05:42
8. Zeige mir 03:32
9. Ende 01:01 instrumental
******************************
Total playing time: 46:19



Extended info
Lukas Massinger Guitars
Markus Massinger Vocals, Bass
Simon Schnückel Drums


Technical info
(IMG:http://metalarea.org/images/spectrogram/2019_Oct/ccf3b692068897f1c19b979502e87206.png)
Input File: 05 - Weit weit ist der Weg.mp3
Channels : 2
Sample Rate : 44100
Precision : 16-bit
Duration : 00:07:25.73 = 19656473 samples = 33429.4 CDDA sectors
File Size : 18.0M
Bit Rate : 322k
Sample Encoding: MPEG audio (layer I, II or III)
Comments :
Title=Weit weit ist der Weg
Artist=D.A.W.N.
Album=Ende Ihrer
Tracknumber=5
Year=2019



Register


Go to the top of the page
  Insert nick Quick quote
+Quote Post
 
Start new topic
Replies (1 - 2)
post Oct 20 2019, 20:00:56
Post #2

Правь статус, ####!111
**************
Group: Металариец
Posts: 19,537
Releases: 13216
From: Г.Харьков
On Forums: 7 years 6 months
Thanks: 228016 time(s)
Unknown


Cloud Mail 320
Register
Go to the top of the page
  Insert nick Quick quote
+Quote Post
post Oct 24 2019, 12:55:02
Post #3

Group: Подсевший
Posts: 12
Releases: 0
On Forums: 5 months 3 weeks
Thanks: 0 time(s)
Ukraine


Довольно мелодично слушать приятно
Go to the top of the page
  Insert nick Quick quote
+Quote Post

Reply to this topicStart new topic
2 User(s) are reading this topic (2 Guests and 0 Anonymous Users)
0 Members:

 



- Lo-Fi Version Support form
Copyrights and abuse reports form
Time is now: 19th November 2019 - 21:38:15