Welcome Guest ( Log In | Register )

> Releases Upload / Добавление релизов

Добавить релиз тут / Click here to add release
Рекомендованные обменники / Recommended file shares

> Dødsdrift - Weltenszission (2019), Melodic Black Metal
post Oct 19 2019, 18:02:32
Post #1

Правь статус, ####!111
**************
Group: Металариец
Posts: 19,438
Releases: 13151
From: Г.Харьков
On Forums: 7 years 6 months
Thanks: 226738 time(s)
Unknown


(IMG:http://metalarea.org/images/audiocovers/2019_Oct/acov_tid329047_thumb.jpg)

*Artist: Dødsdrift
*Album: Weltenszission
*Year: 2019
*Genre: Melodic Black Metal
*Country: Germany (IMG:http://metalarea.org/forum/style_images/flags/Germany.png)
*Format: mp3@CBR320kbps
*Size: 74MB

Tracklist:
1. Aufs Meer hinaus
2. Vorboten
3. Weltenszission
4. Zu Grunde
5. Märtyrer des Geistes
6. Anheim
7. Gedankensturm
8. ...vom Mythos Frieden
******************************
Total playing time: 31:20


(IMG:http://metalarea.org/images/youtube.png)

Technical info
(IMG:http://metalarea.org/images/spectrogram/2019_Oct/312746b7afa2bff53b8e5b06bd8c8271.png)
Input File: 03 - Weltenszission.mp3
Channels : 2
Sample Rate : 44100
Precision : 16-bit
Duration : 00:03:36.37 = 9542049 samples = 16228 CDDA sectors
File Size : 8.66M
Bit Rate : 320k
Sample Encoding: MPEG audio (layer I, II or III)
Comments :
Title=Weltenszission
Artist=Dødsdrift
Album=Weltenszission
Tracknumber=3
Year=2019
Genre=Black Metal



Register


Go to the top of the page
  Insert nick Quick quote
+Quote Post
 
Start new topic
Replies (1 - 3)
post Oct 20 2019, 19:54:21
Post #2

Правь статус, ####!111
**************
Group: Металариец
Posts: 19,438
Releases: 13151
From: Г.Харьков
On Forums: 7 years 6 months
Thanks: 226738 time(s)
Unknown


Cloud Mail 320
Register


Go to the top of the page
  Insert nick Quick quote
+Quote Post
post Oct 23 2019, 12:10:13
Post #3

Ъ
**************
Group: Металариец
Posts: 9,758
Releases: 9
On Forums: 10 years 10 months
Thanks: 1916 time(s)
Sweden


Третьесорт, на раз послушать можно.
Go to the top of the page
  Insert nick Quick quote
+Quote Post
post Oct 29 2019, 16:16:09    Сейчас играет: Супер!
Post #4

Литр
*
Group: Подсевший
Posts: 69
Releases: 0
From: Россия
On Forums: 5 years 10 months
Thanks: 2 time(s)
Russian Federation


ЦИТАТА(Samaritianin @ Oct 19 2019, 18:02:32) *
http://metalarea.org/images/audiocovers/20...29047_thumb.jpg

*Artist: Dødsdrift
*Album: Weltenszission
*Year: 2019
*Genre: Melodic Black Metal
*Country: Germany http://metalarea.org/forum/style_images/flags/Germany.png
*Format: mp3@CBR320kbps
*Size: 74MB

Tracklist:
1. Aufs Meer hinaus
2. Vorboten
3. Weltenszission
4. Zu Grunde
5. Märtyrer des Geistes
6. Anheim
7. Gedankensturm
8. ...vom Mythos Frieden
******************************
Total playing time: 31:20


http://metalarea.org/images/youtube.png

Technical info
http://metalarea.org/images/spectrogram/20...b06bd8c8271.png
Input File: 03 - Weltenszission.mp3
Channels : 2
Sample Rate : 44100
Precision : 16-bit
Duration : 00:03:36.37 = 9542049 samples = 16228 CDDA sectors
File Size : 8.66M
Bit Rate : 320k
Sample Encoding: MPEG audio (layer I, II or III)
Comments :
Title=Weltenszission
Artist=Dødsdrift
Album=Weltenszission
Tracknumber=3
Year=2019
Genre=Black Metal


Go to the top of the page
  Insert nick Quick quote
+Quote Post

Reply to this topicStart new topic
2 User(s) are reading this topic (2 Guests and 0 Anonymous Users)
0 Members:

 



- Lo-Fi Version Support form
Copyrights and abuse reports form
Time is now: 12th November 2019 - 14:01:32