Welcome Guest ( Log In | Register )

> Releases Upload / Добавление релизов

Добавить релиз тут / Click here to add release
Рекомендованные обменники / Recommended file shares

 
Reply to this topicStart new topic
> Endless - Endless (2019), Progressive Black/Post-Metal (D)
post Oct 19 2019, 19:31:28
Post #1

Правь статус, ####!111
**************
Group: Металариец
Posts: 19,447
Releases: 13151
From: Г.Харьков
On Forums: 7 years 6 months
Thanks: 226825 time(s)
Unknown


(IMG:http://metalarea.org/images/audiocovers/2019_Oct/acov_tid329050_thumb.jpg)

*Artist: Endless
*Album: Endless
*Year: 2019
*Genre: Progressive Black/Post-Metal
*Country: Mexico (IMG:http://metalarea.org/forum/style_images/flags/Mexico.png)
*Format: mp3@CBR320kbps
*Size: 104MB

Tracklist:
1. M.M.A.D. I
2. 25-17
3. M.M.A.D. II
4. Not Your Gods
5. M.M.A.D. III
6. Unholy Mountain
7. M.M.A.D. IV
8. Onassis
9. M.M.A.D. V
10. Remember The Sun feat. Ikanunna
11. M.M.A.D. VI
12. Casi Perdemos Todo
13. Remember The Sun (Instrumental - Bonus Track)
******************************
Total playing time: 45:20



Extended info
Alex
Fernando
Gio
Romo


Technical info
(IMG:http://metalarea.org/images/spectrogram/2019_Oct/4cdff64bc383b9d6a31990e28ebc4188.png)
Input File: 04 - Not Your Gods.mp3
Channels : 2
Sample Rate : 44100
Precision : 16-bit
Duration : 00:04:59.20 = 13194544 samples = 22439.7 CDDA sectors
File Size : 12.1M
Bit Rate : 322k
Sample Encoding: MPEG audio (layer I, II or III)
Comments :
Title=Not Your Gods
Artist=Endless
Album=Endless
Tracknumber=4
Year=2019



Register


Go to the top of the page
  Insert nick Quick quote
+Quote Post

Reply to this topicStart new topic
2 User(s) are reading this topic (2 Guests and 0 Anonymous Users)
0 Members:

 



- Lo-Fi Version Support form
Copyrights and abuse reports form
Time is now: 13th November 2019 - 10:04:34