Welcome Guest ( Log In | Register )

> Releases Upload / Добавление релизов

Добавить релиз тут / Click here to add release
Рекомендованные обменники / Recommended file shares

> Eviscerator - Unparalleled Peril [ep] (2019), Slamming Technical Deathcore
post Oct 19 2019, 20:16:37
Post #1

Правь статус, ####!111
**************
Group: Металариец
Posts: 19,545
Releases: 13223
From: Г.Харьков
On Forums: 7 years 6 months
Thanks: 228091 time(s)
Unknown


(IMG:http://metalarea.org/images/audiocovers/2019_Oct/acov_tid329053_thumb.jpg)

*Artist: Eviscerator
*Album: Unparalleled Peril [ep]
*Year: 2019
*Genre: Slamming Technical Deathcore
*Country: United States (IMG:http://metalarea.org/forum/style_images/flags/United%20States.png)
*Format: mp3@CBR320kbps
*Size: 33MB

Tracklist:
1. Death 01:00
2. Profane Glory 02:19
3. Drowning 01:03
4. Re-Birth 00:45
5. Unparalleled Peril 02:51
6. The Food Chain (feat. Lucca Schmerler) 04:00
7. The Serpent's Eye 02:04
******************************
Total playing time: 14:02




Extended info
Andrew Johnson
Austin Doyle
Ft. Lucca Schmerler


Technical info
(IMG:http://metalarea.org/images/spectrogram/2019_Oct/97469b695233680bee8e7faada9b426e.png)
Input File: 06 - The Food Chain (feat. Lucca Schmerler).mp3
Channels : 2
Sample Rate : 44100
Precision : 16-bit
Duration : 00:04:00.24 = 10594364 samples = 18017.6 CDDA sectors
File Size : 9.73M
Bit Rate : 324k
Sample Encoding: MPEG audio (layer I, II or III)
Comments :
Title=The Food Chain (feat. Lucca Schmerler)
Artist=Eviscerator; Lucca Schmerler
Album=Unparalleled Peril
Tracknumber=6
Year=2019-10-15
Genre=Metal
Discnumber=1



Register


Go to the top of the page
  Insert nick Quick quote
+Quote Post
 
Start new topic
Replies (1 - 2)
post Oct 21 2019, 13:30:38
Post #2

тебе 29, а ты все реверсами балуешься
***********
Group: Металариец
Posts: 1,770
Releases: 4
On Forums: 11 years 3 months
Thanks: 515 time(s)
Russian Federation


Скучнейше, как и любой другой средний представитель жанра (IMG:style_emoticons/default/21.gif)
Go to the top of the page
  Insert nick Quick quote
+Quote Post
post Oct 21 2019, 13:32:07
Post #3

Правь статус, ####!111
**************
Group: Металариец
Posts: 44,131
Releases: 678
On Forums: 10 years 5 months
Thanks: 35411 time(s)
Russian Federation


ЦИТАТА(Foneg @ Oct 21 2019, 15:30:38) *
Скучнейше, как и любой другой современный металкор и дэткор

Go to the top of the page
  Insert nick Quick quote
+Quote Post

Reply to this topicStart new topic
2 User(s) are reading this topic (2 Guests and 0 Anonymous Users)
0 Members:

 



- Lo-Fi Version Support form
Copyrights and abuse reports form
Time is now: 20th November 2019 - 07:37:26