Welcome Guest ( Log In | Register )

> Releases Upload / Добавление релизов

Добавить релиз тут / Click here to add release
Рекомендованные обменники / Recommended file shares

 
Reply to this topicStart new topic
> Torrax - V Každym Z Nás (2019), Power Metal
post Oct 19 2019, 20:38:40
Post #1

Правь статус, ####!111
**************
Group: Металариец
Posts: 19,524
Releases: 13212
From: Г.Харьков
On Forums: 7 years 6 months
Thanks: 227890 time(s)
Unknown


(IMG:http://metalarea.org/images/audiocovers/2019_Oct/acov_tid329054_thumb.jpg)

*Artist: Torrax
*Album: V Každym Z Nás
*Year: 2019
*Genre: Power Metal
*Country: Czech Republic (IMG:http://metalarea.org/forum/style_images/flags/Czech%20Republic.png)
*Format: mp3@CBR320kbps
*Size: 100MB

Tracklist:
1. Intro 00:58
2. Dej se k nám 04:16
3. Metalová 02:29
4. Duše 03:44
5. Deprese 03:54
6. Život už dal ti dost 04:20
7. Bludnej Holanďan 03:33
8. V Ardenách 06:45
9. Jizvy v srdcích 06:14
10. Somálská 06:51
******************************
Total playing time: 43:04




Extended info
Honza Sobota
Michal Kružík
David Svoboda
Jindřich Čejka
Jaroslav Komberec


Technical info
(IMG:http://metalarea.org/images/spectrogram/2019_Oct/2f5d636be5c2448d6eb30b812c531d8c.png)
Input File: 05 - Deprese.mp3
Channels : 2
Sample Rate : 44100
Precision : 16-bit
Duration : 00:03:54.88 = 10358164 samples = 17615.9 CDDA sectors
File Size : 9.57M
Bit Rate : 326k
Sample Encoding: MPEG audio (layer I, II or III)
Comments :
Title=Deprese
Artist=Torrax
Album=V každym z nás
Tracknumber=5
Year=2019



Register


Go to the top of the page
  Insert nick Quick quote
+Quote Post

Reply to this topicStart new topic
2 User(s) are reading this topic (2 Guests and 0 Anonymous Users)
0 Members:

 



- Lo-Fi Version Support form
Copyrights and abuse reports form
Time is now: 18th November 2019 - 17:54:48