Welcome Guest ( Log In | Register )

> Releases Upload / Добавление релизов

Добавить релиз тут / Click here to add release
Рекомендованные обменники / Recommended file shares

> Species - The Monument Of Envy [ep] (2019), Progressive Thrash Metal
post Oct 19 2019, 22:15:31
Post #1

Правь статус, ####!111
**************
Group: Металариец
Posts: 19,444
Releases: 13151
From: Г.Харьков
On Forums: 7 years 6 months
Thanks: 226785 time(s)
Unknown


(IMG:http://metalarea.org/images/audiocovers/2019_Oct/acov_tid329058_thumb.jpg)

*Artist: Species
*Album: The Monument Of Envy [ep]
*Year: 2019
*Genre: Progressive Thrash Metal
*Country: Poland (IMG:http://metalarea.org/forum/style_images/flags/Poland.png)
*Format: mp3@CBR320kbps
*Size: 43MB

Tracklist:
1. Falls the Tower 06:06
2. The Monument of Envy 05:33
3. Thy Name Is Slaughter 06:55
******************************
Total playing time: 18:34




Extended info
Przemysław Hampelski Drums
Michał Kępka Guitars
Piotr Drobina Vocals, Bass


Technical info
(IMG:http://metalarea.org/images/spectrogram/2019_Oct/e55ac6cd422ceae6bc8fa4194839d305.png)
Input File: 02 - The Monument of Envy.mp3
Channels : 2
Sample Rate : 44100
Precision : 16-bit
Duration : 00:05:33.89 = 14724505 samples = 25041.7 CDDA sectors
File Size : 13.5M
Bit Rate : 323k
Sample Encoding: MPEG audio (layer I, II or III)
Comments :
Title=The Monument of Envy
Artist=Species
Album=The Monument of Envy
Tracknumber=2
Year=2019-05-31
Genre=Metal
Discnumber=1



Register


Go to the top of the page
  Insert nick Quick quote
+Quote Post
 
Start new topic
Replies (1 - 1)
post Oct 21 2019, 08:43:06
Post #2

Литр
*
Group: Подсевший
Posts: 75
Releases: 0
On Forums: 2 years 6 months
Thanks: 23 time(s)
Russian Federation


Хороший прог-трэш, чувствуются славные традиции конца 80-х - начала 90-х
Go to the top of the page
  Insert nick Quick quote
+Quote Post

Reply to this topicStart new topic
2 User(s) are reading this topic (2 Guests and 0 Anonymous Users)
0 Members:

 



- Lo-Fi Version Support form
Copyrights and abuse reports form
Time is now: 12th November 2019 - 21:56:10