Welcome Guest ( Log In | Register )

> Releases Upload / Добавление релизов

Добавить релиз тут / Click here to add release
Рекомендованные обменники / Recommended file shares

> Obsidian Dawn - Echoes Of A New Dawn [ep] (2019), Raw Black Metal
post Oct 20 2019, 19:04:04
Post #1

Мегаманьяк
***********
Group: Металариец
Posts: 1,819
Releases: 1437
From: Prešov
On Forums: 5 years 7 months
Thanks: 35095 time(s)
Slovakia


(IMG:http://metalarea.org/images/audiocovers/2019_Oct/acov_tid329072_thumb.jpg)

*Artist: Obsidian Dawn
*Album: Echoes Of A New Dawn [ep]
*Year: 2019
*Genre: Raw Black Metal
*Country: Portugal (IMG:http://metalarea.org/forum/style_images/flags/Portugal.png)
*Format: mp3@CBR320kbps
*Size: 58MB

Tracklist:
1. Intro
2. Echoes of a New Dawn
3. Eternal Flames of Hatred
4. Bloodmoon Cries
******************************
Total playing time: 24:25

Extended info
Black Gangrene Productions, 10" MLP.
Vinyl-rip + Scans


Technical info
(IMG:http://metalarea.org/images/spectrogram/2019_Oct/9d6f0bca2b6ea0b4b679a079a5c3bbaf.png)
Input File: 02. Echoes of a New Dawn.mp3
Channels : 2
Sample Rate : 48000
Precision : 16-bit
Duration : 00:08:11.33 = 23583744 samples ~ 36849.6 CDDA sectors
File Size : 19.9M
Bit Rate : 325k
Sample Encoding: MPEG audio (layer I, II or III)
Comments :
Title=Echoes Of A New Dawn
Artist=Obsidian Dawn
Album=Echoes Of A New Dawn
Tracknumber=02/04
Year=2019
Genre=Black Metal



Register


Go to the top of the page
  Insert nick Quick quote
+Quote Post
 
Start new topic
Replies (1 - 5)
post Oct 21 2019, 07:58:54
Post #2

While Waiting the Worms
*********
Group: Металариец
Posts: 907
Releases: 0
On Forums: 5 years 10 months
Thanks: 1226 time(s)
Unknown


Go to the top of the page
  Insert nick Quick quote
+Quote Post
post Oct 21 2019, 17:01:06
Post #3

Семь Литров
*******
Group: Металариец
Posts: 744
Releases: 0
On Forums: 12 years 4 weeks
Thanks: 286 time(s)
Belarus


уже скачен лимит (IMG:style_emoticons/default/1488.gif)
Go to the top of the page
  Insert nick Quick quote
+Quote Post
post Oct 21 2019, 19:40:35
Post #4


**************
Group: Металариец
Posts: 2,119
Releases: 14
From: Казань
On Forums: 10 years 2 months
Thanks: 2799 time(s)
Russian Federation


Те, кто скучает по депрессив блэку -отличный массив от Black Gangrene, с мрачными душевными казематами, лабиринтами апатии ведущими в безмолвие, карканье кладбищенских воронов и настоящий португальский саунд, не нуждающийся в оценке. Есть тут атмосфера ксастуровского Nocturnal Poisoning, хотя какая к чертям атмосфера у плеяды Black Gangrene - Опустошение и Отдача в репертуаре фанатиков, красота - в минимализме.


Go to the top of the page
  Insert nick Quick quote
+Quote Post
post Oct 22 2019, 14:50:58
Post #5

While Waiting the Worms
*********
Group: Металариец
Posts: 907
Releases: 0
On Forums: 5 years 10 months
Thanks: 1226 time(s)
Unknown


Тоже подумалось о Xasthur. Менее болезненном, разве что.
Массив гулкого и вязкого атмосферного саунда похожим образом отдаётся в сознании.
Go to the top of the page
  Insert nick Quick quote
+Quote Post
post Nov 2 2019, 12:46:33
Post #6

sycamore trees
**************
Group: Металариец
Posts: 3,122
Releases: 0
On Forums: 3 years 9 months
Thanks: 1900 time(s)
Unknown


(IMG:style_emoticons/default/true_black.gif) (IMG:style_emoticons/default/20.gif)
Go to the top of the page
  Insert nick Quick quote
+Quote Post

Reply to this topicStart new topic
1 User(s) are reading this topic (1 Guests and 0 Anonymous Users)
0 Members:

 



- Lo-Fi Version Support form
Copyrights and abuse reports form
Time is now: 17th November 2019 - 21:15:27