Welcome Guest ( Log In | Register )

> И неформату есть предел.

Рэп/хип-хоп/шансон/поп удаляются. Для них есть свои порталы.

> Shrine - Quintessence (2019), Dark Ambient/Drone/Experimental
post Oct 22 2019, 15:54:33
Post #1

белый шум
**************
Group: Металариец
Posts: 2,092
Releases: 37
On Forums: 2 years 2 days
Thanks: 1718 time(s)
Russian Federation


(IMG:https://metalarea.org/images/audiocovers/2019_Oct/acov_tid329161_thumb.jpg)

*Artist: Shrine
*Album: Quintessence
*Year: 2019
*Genre: Dark Ambient/Drone/Experimental
*Country: Bulgaria (IMG:https://metalarea.org/forum/style_images/flags/Bulgaria.png)
*Format: mp3@CBR320kbps
*Size: 95MB

Tracklist:
1.Gaia 07:38
2.Hydor 08:11
3.Aer 08:02
4.Pyr 08:53
5.Quintessence 08:36
******************************
Total playing time: 41:20



Technical info
(IMG:https://metalarea.org/images/spectrogram/2019_Oct/5fff3cee91837ddd56d07c30509e7c5b.png)
Input File: 02.Hydor.mp3
Channels : 2
Sample Rate : 44100
Precision : 16-bit
Duration : 00:08:11.10 = 21657642 samples = 36832.7 CDDA sectors
File Size : 19.6M
Bit Rate : 320k
Sample Encoding: MPEG audio (layer I, II or III)
Comments :
Title=Hydor
Artist=Shrine
Album=Quintessence
Tracknumber=02
Year=2019
Genre=Dark Ammient



Register


Go to the top of the page
  Insert nick Quick quote
+Quote Post
 
Start new topic
Replies (1 - 4)
post Oct 23 2019, 14:06:13
Post #2

Семь Литров
*******
Group: Металариец
Posts: 754
Releases: 0
On Forums: 12 years 3 months
Thanks: 302 time(s)
Belarus


Спасибо! (IMG:style_emoticons/default/9.gif)
Может еще есть в наличии от издателя Atrium Carceri & Cities Last Broadcast?
Go to the top of the page
  Insert nick Quick quote
+Quote Post
post Oct 23 2019, 16:24:00
Post #3

белый шум
**************
Group: Металариец
Posts: 2,092
Releases: 37
On Forums: 2 years 2 days
Thanks: 1718 time(s)
Russian Federation


ЦИТАТА(gena @ Oct 23 2019, 16:06:13) *
Спасибо! (IMG:style_emoticons/default/9.gif)
Может еще есть в наличии от издателя Atrium Carceri & Cities Last Broadcast?


В модерке.


Thanks:
Go to the top of the page
  Insert nick Quick quote
+Quote Post
post Nov 3 2019, 08:29:18
Post #4

Group: Дух
Posts: 2
Releases: 0
On Forums: 2 months 2 weeks
Thanks: 0 time(s)
Unknown


Не получается скачать: когда счётчик доходит до нуля, отсчёт возобновляется, и так без конца и края.
Go to the top of the page
  Insert nick Quick quote
+Quote Post
post Nov 3 2019, 11:13:36
Post #5

Group: Дух
Posts: 2
Releases: 0
On Forums: 2 months 2 weeks
Thanks: 0 time(s)
Unknown


ЦИТАТА(Vidyadharov @ Nov 3 2019, 08:29:18) *
Не получается скачать: когда счётчик доходит до нуля, отсчёт возобновляется, и так без конца и края.


Скачал-таки! Благодарю!
Go to the top of the page
  Insert nick Quick quote
+Quote Post

Reply to this topicStart new topic
1 User(s) are reading this topic (1 Guests and 0 Anonymous Users)
0 Members:

 



- Lo-Fi Version Support form
Copyrights and abuse reports form
Time is now: 23rd January 2020 - 11:33:05