Welcome Guest ( Log In | Register )

> Production Grey - Channel Your Aggressions (1995), Groove/Death Metal
post Oct 25 2019, 23:34:27
Post #1

Подвал
**************
Group: Металариец
Posts: 16,241
Releases: 9309
From: Far East (Khabarovsk)
On Forums: 12 years 7 months
Thanks: 105686 time(s)
Russian Federation


(IMG:http://metalarea.org/images/audiocovers/2019_Oct/acov_tid329353_thumb.jpg)

*Artist: Production Grey
*Album: Channel Your Aggressions
*Year: 1995
*Genre: Groove/Death Metal
*Country: United States (IMG:http://metalarea.org/forum/style_images/flags/United%20States.png)
*Format: mp3@CBR320kbps
*Size: 55MB

Tracklist:
1. The One 03:48
2. Prophecy 04:20
3. Bloodstorm 04:32
4. The Servant 02:03
5. What's The Score 03:09
6. Clairvoyance 04:59
7. Suffer Unto Me 02:07
8. D.U.I. 04:12
******************************
Total playing time: 29:10

(IMG:http://metalarea.org/images/myspace.png)
(IMG:http://metalarea.org/images/youtube.png)

Extended info
Recorded October, 1995 at R.T. Audio.


Technical info
(IMG:http://metalarea.org/images/spectrogram/2019_Oct/c06081b722c6a23031b7fd405a0fd788.png)
Input File: 01-The One.mp3
Channels : 2
Sample Rate : 44100
Precision : 16-bit
Duration : 00:03:48.78 = 10089330 samples = 17158.7 CDDA sectors
File Size : 9.15M
Bit Rate : 320k
Sample Encoding: MPEG audio (layer I, II or III)
Comments :
Title=The One
Artist=Production Grey
Album=Channel Your Aggressions
Tracknumber=1
Year=1995
Genre=Metal



Register


Go to the top of the page
  Insert nick Quick quote
+Quote Post
 
Start new topic
Replies (1 - 1)
post Oct 26 2019, 19:49:51
Post #2

ME[ta]LLOMAN
**************
Group: Металариец
Posts: 5,015
Releases: 3
From: Avdeyevka
On Forums: 15 years 5 months
Thanks: 2066 time(s)
Honduras




Thanks:
(1) artscald,
Go to the top of the page
  Insert nick Quick quote
+Quote Post

Reply to this topicStart new topic
1 User(s) are reading this topic (1 Guests and 0 Anonymous Users)
0 Members:

 



- Lo-Fi Version Support form
Copyrights and abuse reports form
Time is now: 17th September 2021 - 14:58:54