Welcome Guest ( Log In | Register )

> Production Grey - Defilement (1997), Groove/Death Metal
post Oct 25 2019, 23:49:17
Post #1

Подвал
**************
Group: Металариец
Posts: 16,247
Releases: 9310
From: Far East (Khabarovsk)
On Forums: 12 years 7 months
Thanks: 105722 time(s)
Russian Federation


(IMG:http://metalarea.org/images/audiocovers/2019_Oct/acov_tid329354_thumb.jpg)

*Artist: Production Grey
*Album: Defilement
*Year: 1997
*Genre: Groove/Death Metal
*Country: United States (IMG:http://metalarea.org/forum/style_images/flags/United%20States.png)
*Format: mp3@CBR320kbps
*Size: 65MB

Tracklist:
1. The Paradox Of Existence 04:27
2. Defilement 03:24
3. Schizophrenic Delusions 04:12
4. Fatal Implications 04:34
5. Nauseated 04:11
6. Fear The Eternal 03:31
7. The Master Race 04:13
8. Double Standard 04:03
******************************
Total playing time: 32:35

Extended info
Recorded at Laud Studios, June 6th and 7th, 1997.


Technical info
(IMG:http://metalarea.org/images/spectrogram/2019_Oct/25b0ea98378b5ce3f715d9b108038b7b.png)
Input File: 01-The Paradox of Existence.mp3
Channels : 2
Sample Rate : 44100
Precision : 16-bit
Duration : 00:04:37.79 = 12250495 samples = 20834.2 CDDA sectors
File Size : 11.1M
Bit Rate : 320k
Sample Encoding: MPEG audio (layer I, II or III)
Comments :
Title=The Paradox of Existence
Artist=Production Grey (US, MI)
Album=Defilement
Tracknumber=01
Year=1997
Genre=Metal



Register


Go to the top of the page
  Insert nick Quick quote
+Quote Post
 
Start new topic
Replies (1 - 1)
post Oct 26 2019, 19:48:28
Post #2

ME[ta]LLOMAN
**************
Group: Металариец
Posts: 5,015
Releases: 3
From: Avdeyevka
On Forums: 15 years 5 months
Thanks: 2066 time(s)
Honduras



симпатишна, например.. (IMG:style_emoticons/default/9.gif)
Go to the top of the page
  Insert nick Quick quote
+Quote Post

Reply to this topicStart new topic
1 User(s) are reading this topic (1 Guests and 0 Anonymous Users)
0 Members:

 



- Lo-Fi Version Support form
Copyrights and abuse reports form
Time is now: 19th September 2021 - 19:09:04