Welcome Guest ( Log In | Register )

 
Reply to this topicStart new topic
> Hotbild - Tomhet (2018), Black Metal/Crust (D)
post Oct 26 2019, 20:25:28
Post #1

antithesis
**************
Group: Металариец
Posts: 3,428
Releases: 35
From: VRN
On Forums: 11 years 3 months
Thanks: 2190 time(s)
Russian Federation


(IMG:https://metalarea.org/images/audiocovers/2019_Oct/acov_tid329394_thumb.jpg)

*Artist: Hotbild
*Album: Tomhet
*Year: 2018
*Genre: Black Metal/Crust
*Country: Sweden (IMG:https://metalarea.org/forum/style_images/flags/Sweden.png)
*Format: mp3@VBR268kbps
*Size: 53MB

Tracklist:
1. Domedag (Intro) 01:09
2. Förvriden verklighet 02:39
3. Medan världen gick åt helvete 03:24
4. Hungrig trött och tärd 01:58
5. Förintad 03:34
6. I skuggan av livet 02:08
7. Låt mig aldrig vakna mer 02:06
8. Mitt labila jag 02:11
9. Förblindad av hat 02:44
10. I dödens väntrum 02:06
11. Tomhet 03:06
******************************
Total playing time: 27:05

(IMG:https://metalarea.org/images/youtube.png)

Extended info
Согласно информации из буклета, материал был записан зимой 2004-2005, но по различным причинам не был выпущен.

В 2018 выпущен Blackstar Productions в цифровом формате.
Ранее был в лоу и в недооформленном виде.



Technical info
(IMG:https://metalarea.org/images/spectrogram/2019_Oct/29452baf0a2f019e8174aa09fd768bcd.png)
Input File: Hotbild - Tomhet - 02 Förvriden Verklighet.mp3
Channels : 2
Sample Rate : 44100
Precision : 16-bit
Duration : 00:02:39.35 = 7027159 samples = 11951 CDDA sectors
File Size : 5.40M
Bit Rate : 271k
Sample Encoding: MPEG audio (layer I, II or III)
Comments :
Title=Förvriden Verklighet
Artist=Hotbild
Album=Tomhet
Tracknumber=2
Year=2005



Register


Go to the top of the page
  Insert nick Quick quote
+Quote Post

Reply to this topicStart new topic
1 User(s) are reading this topic (1 Guests and 0 Anonymous Users)
0 Members:

 



- Lo-Fi Version Support form
Copyrights and abuse reports form
Time is now: 19th September 2021 - 17:30:38