Welcome Guest ( Log In | Register )

> 

Здесь релизы с живыми прямыми ссылками на lossless

> Nile - Vile Nilotic Rites (2019), Brutal/Technical Death Metal
post Oct 31 2019, 11:24:10
Post #1

Serial Uploader
Group Icon
Group: V.I.P
Posts: 41,946
Releases: 40017
From: Lithuania
On Forums: 15 years 8 months
Thanks: 509574 time(s)
Lithuania


(IMG:http://metalarea.org/images/audiocovers/2019_Oct/acov_tid329575_thumb.jpg)

*Artist: Nile
*Album: Vile Nilotic Rites
*Year: 2019
*Genre: Brutal/Technical Death Metal
*Country: United States (IMG:http://metalarea.org/forum/style_images/flags/United%20States.png)
*Format: mp3@CBR320kbps
*Size: 126MB

Tracklist:
01. Long Shadows of Dread 04:07
02. The Oxford Handbook of Savage Genocidal Warfare 03:09
03. Vile Nilotic Rites 03:28
04. Seven Horns of War 08:48
05. That Which Is Forbidden 05:35
06. Snake Pit Mating Frenzy 02:48
07. Revel in Their Suffering 05:44
08. Thus Sayeth the Parasites of the Mind 01:42
09. Where Is the Wrathful Sky 04:40
10. The Imperishable Stars Are Sickened 08:00
11. We Are Cursed 06:53
******************************
Total playing time: 54:54

(IMG:http://metalarea.org/images/myspace.png)


(IMG:http://metalarea.org/images/youtube.png)

Technical info
(IMG:http://metalarea.org/images/spectrogram/2019_Oct/96bfed85ce1c83147f7e151c641c9505.png)
Input File: 02 The Oxford Handbook of Savage Genocidal Warfare.mp3
Channels : 2
Sample Rate : 44100
Precision : 16-bit
Duration : 00:03:09.50 = 8357038 samples = 14212.6 CDDA sectors
File Size : 7.58M
Bit Rate : 320k
Sample Encoding: MPEG audio (layer I, II or III)
Comments :
Title=The Oxford Handbook of Savage Genocidal Warfare
Artist=Nile
Album=Vile Nilotic Rites
Tracknumber=02/11
Year=2019-19-20
Discnumber=1/1



Register


This post has been edited by DarkHorde: Jan 18 2020, 02:53:49


Go to the top of the page
  Insert nick Quick quote
+Quote Post
8 Pages V  < 1 2 3 4 > »   
Start new topic
Replies (30 - 59)
post Nov 1 2019, 14:23:11
Post #31

Ледоруб
**************
Group: Металариец
Posts: 33,345
Releases: 0
From: Санкт-Петербург
On Forums: 14 years 5 months
Thanks: 11675 time(s)
Russian Federation


ЦИТАТА(Paatddal @ 1st November 2019 - 16:21:56) *
отличия от прошлых двух альбомов 0,

Странное утверждение, учитывая тот факт, что прошлый сильно отличается от позапрошлого, пусть и только качеством.
Go to the top of the page
  Insert nick Quick quote
+Quote Post
post Nov 1 2019, 14:25:46
Post #32

Paysage D'Hiver
**************
Group: Металариец
Posts: 5,834
Releases: 519
On Forums: 16 years 6 months
Thanks: 8389 time(s)
Russian Federation


ЦИТАТА(6666666 @ Nov 1 2019, 16:23:11) *
Странное утверждение, учитывая тот факт, что прошлый сильно отличается от позапрошлого, пусть и только качеством.

При прослушивании всех трех альбомов я засыпал. Что тут странного?!
Какой же это брутал, и даже техникал, если я под него чуть не заснул?!
Go to the top of the page
  Insert nick Quick quote
+Quote Post
post Nov 1 2019, 14:26:54
Post #33

Ледоруб
**************
Group: Металариец
Posts: 33,345
Releases: 0
From: Санкт-Петербург
On Forums: 14 years 5 months
Thanks: 11675 time(s)
Russian Federation


ЦИТАТА(Paatddal @ 1st November 2019 - 16:25:46) *
При прослушивании всех трех альбомов я засыпал.

Кокс заноздри, как рукой отпустит.

ЦИТАТА(Paatddal @ 1st November 2019 - 16:25:46) *
Какой же это брутал

ЦИТАТА(Paatddal @ 1st November 2019 - 16:25:46) *
заснул

Всё сходится.


Thanks:
Go to the top of the page
  Insert nick Quick quote
+Quote Post
post Nov 1 2019, 14:27:07
Post #34

Paysage D'Hiver
**************
Group: Металариец
Posts: 5,834
Releases: 519
On Forums: 16 years 6 months
Thanks: 8389 time(s)
Russian Federation


ЦИТАТА(6666666 @ Nov 1 2019, 16:26:36) *
Кокс заноздри, как рукой отпустит.

Тогда зачем мне новое творение нила?! (IMG:style_emoticons/default/1488.gif)
Go to the top of the page
  Insert nick Quick quote
+Quote Post
post Nov 1 2019, 14:28:12
Post #35

Ледоруб
**************
Group: Металариец
Posts: 33,345
Releases: 0
From: Санкт-Петербург
On Forums: 14 years 5 months
Thanks: 11675 time(s)
Russian Federation


ЦИТАТА(Paatddal @ 1st November 2019 - 16:27:07) *
Тогда зачем мне новое творение нила?!

В качестве алиби.


Thanks:
Go to the top of the page
  Insert nick Quick quote
+Quote Post
post Nov 1 2019, 14:30:05
Post #36

Paysage D'Hiver
**************
Group: Металариец
Posts: 5,834
Releases: 519
On Forums: 16 years 6 months
Thanks: 8389 time(s)
Russian Federation


ЦИТАТА(6666666 @ Nov 1 2019, 16:28:12) *
В качестве алиби.

Если только
Go to the top of the page
  Insert nick Quick quote
+Quote Post
post Nov 1 2019, 14:31:54
Post #37

Ледоруб
**************
Group: Металариец
Posts: 33,345
Releases: 0
From: Санкт-Петербург
On Forums: 14 years 5 months
Thanks: 11675 time(s)
Russian Federation


Ребята, скажите, во флаке сильно звук лучше (я знаю, что он по умолчанию лучше, чем 320, я про пресловутую громкость, скорее)? А то меня это беспокоит зело.
Go to the top of the page
  Insert nick Quick quote
+Quote Post
post Nov 1 2019, 14:35:03
Post #38

Мегаманьяк
***********
Group: Металариец
Posts: 1,734
Releases: 0
On Forums: 5 years 7 months
Thanks: 1529 time(s)
Unknown


Я качал по ссылке 80-го, с "мыла". Все нормально там с громкостью.


Thanks:
Go to the top of the page
  Insert nick Quick quote
+Quote Post
post Nov 1 2019, 14:35:38
Post #39

Ледоруб
**************
Group: Металариец
Posts: 33,345
Releases: 0
From: Санкт-Петербург
On Forums: 14 years 5 months
Thanks: 11675 time(s)
Russian Federation


Я у Миротворца, хоть и промазал лайком.
Go to the top of the page
  Insert nick Quick quote
+Quote Post
post Nov 1 2019, 14:43:04
Post #40

Правь статус, ####!111
**************
Group: Металариец
Posts: 55,380
Releases: 1153
On Forums: 14 years 8 months
Thanks: 53766 time(s)
Russian Federation


ЦИТАТА(6666666 @ Nov 1 2019, 16:26:54) *
Кокс заноздри, как рукой отпустит.


15 000 за грамм - давно ли ты стал настолько богат? (IMG:style_emoticons/default/crazy.gif)

Хороший альбом, вполне каноничный для группы.

Хотя конечно, 2009 и 2012 посильнее будут.
Go to the top of the page
  Insert nick Quick quote
+Quote Post
post Nov 1 2019, 14:47:09
Post #41

Ледоруб
**************
Group: Металариец
Posts: 33,345
Releases: 0
From: Санкт-Петербург
On Forums: 14 years 5 months
Thanks: 11675 time(s)
Russian Federation


ЦИТАТА(vosmidesijatye @ 1st November 2019 - 16:43:04) *
15 000 за грамм - давно ли ты стал настолько богат?

Настолько, чтобы становиться диллером - нет.


Thanks:
Go to the top of the page
  Insert nick Quick quote
+Quote Post
post Nov 1 2019, 14:58:34
Post #42

necrophilosopher
**********
Group: Металариец
Posts: 1,136
Releases: 0
From: Ад-на-Земле
On Forums: 15 years 1 month
Thanks: 1043 time(s)
Uzbekistan


Проблемы с громкостью могут быть при прописанном в файле replay-gain (выравнивание громкости). Если плеер читает эту инфу с файла, вся громкость выравнивается на 0 дБ. Просто удалите эту запись из метаданных файла. Другая причина низкой громкости - исходник в хай-рез стерео, где специально занижена громкость, якобы для более полного динамического диапазона.


Thanks:
Go to the top of the page
  Insert nick Quick quote
+Quote Post
post Nov 1 2019, 15:27:17
Post #43

Наливай!
**************
Group: Металариец
Posts: 6,409
Releases: 27
From: Москва-Бибирево
On Forums: 15 years 11 months
Thanks: 3328 time(s)
Russian Federation


ЦИТАТА(DiKobRaZzz @ Nov 1 2019, 13:45:44) *
320, я флак не заметил) Щас его попробую.


Напиши потом как оно?.
Go to the top of the page
  Insert nick Quick quote
+Quote Post
post Nov 1 2019, 17:31:36
Post #44

практики шума одухотворяющего
**************
Group: Металариец
Posts: 4,020
Releases: 151
From: хроник дисмембера
On Forums: 6 years 1 month
Thanks: 6858 time(s)
Russian Federation


Lux, (IMG:style_emoticons/default/9.gif) Крутая инфа. Кодировал собственноручно из исходного FLAC - 16, LAME3.100. Настройки кодировщика - Processing - ReplayGain - None.. В моих файлах этих тегов нет.
В фубаре эта функция отключается

Разницы в уровне не вижу. В сети сейчас появился и флак - 24 если будет не лень скачаю сравню.

для тру - бескомпрессорных пацанов
foobar2000 1.4.6 / Замер динамического диапазона (DR) 1.1.1
Дата отчёта: 2019-11-01 19:16:30

--------------------------------------------------------------------------------
Анализ: Nile / Vile Nilotic Rites
--------------------------------------------------------------------------------

DR Пики RMS Продолжительность трека
--------------------------------------------------------------------------------
DR6 -0.38 дБ -7.75 дБ 4:08 01-Long Shadows of Dread
DR5 -0.15 дБ -6.86 дБ 3:09 02-The Oxford Handbook of Savage Genocidal Warfare
DR6 -0.36 дБ -7.86 дБ 3:28 03-Vile Nilotic Rites
DR7 -0.40 дБ -8.94 дБ 8:49 04-Seven Horns of War
DR5 -0.21 дБ -7.33 дБ 5:36 05-That Which Is Forbidden
DR6 -0.48 дБ -7.78 дБ 2:49 06-Snake Pit Mating Frenzy
DR6 -0.23 дБ -7.63 дБ 5:45 07-Revel in Their Suffering
DR5 0.00 дБ -9.30 дБ 1:43 08-Thus Sayeth the Parasites of the Mind
DR6 -0.24 дБ -8.00 дБ 4:40 09-Where Is the Wrathful Sky
DR6 0.00 дБ -7.84 дБ 8:00 10-The Imperishable Stars Are Sickened
DR6 -0.41 дБ -8.29 дБ 6:54 11-We Are Cursed
--------------------------------------------------------------------------------

Количество треков: 11
Реальные значения DR: DR6

Частота: 44100 Гц
Каналов: 2
Разрядность: 16
Битрейт: 999 кбит/с
Кодек: FLAC
================================================================================



зы на 2012 было Реальные значения DR: DR7 на Limited Edition Digipack.
Go to the top of the page
  Insert nick Quick quote
+Quote Post
post Nov 1 2019, 17:46:39
Post #45

Ледоруб
**************
Group: Металариец
Posts: 33,345
Releases: 0
From: Санкт-Петербург
On Forums: 14 years 5 months
Thanks: 11675 time(s)
Russian Federation


Вы более крестьянским языком объясните это ваше, пжлст. Здешние 320 косячные?
Go to the top of the page
  Insert nick Quick quote
+Quote Post
post Nov 1 2019, 18:20:29
Post #46

практики шума одухотворяющего
**************
Group: Металариец
Posts: 4,020
Releases: 151
From: хроник дисмембера
On Forums: 6 years 1 month
Thanks: 6858 time(s)
Russian Federation


6666666, Всё норм.
Go to the top of the page
  Insert nick Quick quote
+Quote Post
post Nov 1 2019, 18:22:10
Post #47

Ледоруб
**************
Group: Металариец
Posts: 33,345
Releases: 0
From: Санкт-Петербург
On Forums: 14 years 5 months
Thanks: 11675 time(s)
Russian Federation


ЦИТАТА(mirotvorets @ 1st November 2019 - 20:20:29) *
Всё норм.

Тогда альбому уже -1 за звук.
Go to the top of the page
  Insert nick Quick quote
+Quote Post
post Nov 1 2019, 18:24:38
Post #48

necrophilosopher
**********
Group: Металариец
Posts: 1,136
Releases: 0
From: Ад-на-Земле
On Forums: 15 years 1 month
Thanks: 1043 time(s)
Uzbekistan


ЦИТАТА(6666666 @ Nov 1 2019, 21:46:39) *
Вы более крестьянским языком объясните это ваше, пжлст. Здешние 320 косячные?
Если у тебя никаких неудобств в прослушивании не наблюдается, в виде недостаточной громкости - считай всё в порядке! У Миротворца вполне нормальный и громкий исходник, стало быть и мп3 должны быть в норме. Свой флакон я качал не отсюда, но показатели те же.
Go to the top of the page
  Insert nick Quick quote
+Quote Post
post Nov 1 2019, 18:25:43
Post #49

Ледоруб
**************
Group: Металариец
Posts: 33,345
Releases: 0
From: Санкт-Петербург
On Forums: 14 years 5 months
Thanks: 11675 time(s)
Russian Federation


ЦИТАТА(Lux @ 1st November 2019 - 20:24:38) *
Если у тебя никаких неудобств в прослушивании не наблюдается, в виде недостаточной громкости - считай всё в порядке!

Как раз эта проблема и есть, и не у меня одного.
Go to the top of the page
  Insert nick Quick quote
+Quote Post
post Nov 1 2019, 18:34:22
Post #50

**************
Group: Металариец
Posts: 2,556
Releases: 28
From: Хунта-Сіті
On Forums: 17 years 4 days
Thanks: 3713 time(s)
Ukraine


ЦИТАТА(6666666 @ Nov 1 2019, 16:23:11) *
Странное утверждение, учитывая тот факт, что прошлый сильно отличается от позапрошлого, пусть и только качеством.

Странное утверждение о странности утверждения, учитывая тот факт, что все эти "сильные отличия" ты себе сам напридумывал. (IMG:style_emoticons/default/1488.gif)
Go to the top of the page
  Insert nick Quick quote
+Quote Post
post Nov 1 2019, 18:36:26
Post #51

Ледоруб
**************
Group: Металариец
Posts: 33,345
Releases: 0
From: Санкт-Петербург
On Forums: 14 years 5 months
Thanks: 11675 time(s)
Russian Federation


ЦИТАТА(Black Cat @ 1st November 2019 - 20:34:22) *
все эти "сильные отличия" ты себе сам напридумывал.

Нет, прошлый лучше позапрошлого и звуком, и материалом.
Go to the top of the page
  Insert nick Quick quote
+Quote Post
post Nov 1 2019, 18:48:55
Post #52

**************
Group: Металариец
Posts: 2,556
Releases: 28
From: Хунта-Сіті
On Forums: 17 years 4 days
Thanks: 3713 time(s)
Ukraine


ЦИТАТА(6666666 @ Nov 1 2019, 20:36:26) *
Нет, прошлый лучше позапрошлого и звуком, и материалом.
(IMG:style_emoticons/default/smile4.gif)
ЦИТАТА(Black Cat @ Nov 1 2019, 20:34:22) *
все эти "сильные отличия" ты себе сам напридумывал. [2]


Thanks:
Go to the top of the page
  Insert nick Quick quote
+Quote Post
post Nov 1 2019, 18:49:37
Post #53

necrophilosopher
**********
Group: Металариец
Posts: 1,136
Releases: 0
From: Ад-на-Земле
On Forums: 15 years 1 month
Thanks: 1043 time(s)
Uzbekistan


От нефиг делать скачал три ссылки, проверил

мп3 файлы от mirotvorets, без тега replay-gain - громкости всех треков в порядке
мп3 файлы от vosmidesijatye, без тега replay-gain - громкости всех треков в порядке
мп3 файлы от necroscum, без тега replay-gain - громкости всех треков в порядке

Файлы Некроскама и Восьмидесятого полностью идентичны.

не понимаю, что происходит и что посоветовать... попробуйте чтоли на каком нибудь другом плеере протестить, телефонном и/или компьютерном, будет ли разница...


Thanks:
Go to the top of the page
  Insert nick Quick quote
+Quote Post
post Nov 1 2019, 19:04:57
Post #54

Ледоруб
**************
Group: Металариец
Posts: 33,345
Releases: 0
From: Санкт-Петербург
On Forums: 14 years 5 months
Thanks: 11675 time(s)
Russian Federation


ЦИТАТА(Black Cat @ 1st November 2019 - 20:48:55) *
все эти "сильные отличия" ты себе сам напридумывал. [2]

Нет, они объективны, пруфов не будет.
Go to the top of the page
  Insert nick Quick quote
+Quote Post
post Nov 1 2019, 19:36:18
Post #55

Ледоруб
**************
Group: Металариец
Posts: 33,345
Releases: 0
From: Санкт-Петербург
On Forums: 14 years 5 months
Thanks: 11675 time(s)
Russian Federation


ЦИТАТА(Lux @ 1st November 2019 - 20:49:37) *
попробуйте чтоли на каком нибудь другом плеере протестить, телефонном и/или компьютерном, будет ли разница...

Да не, тогда очевидно, что это изначально группа так свелась галимо. У них в принципе хорошего звука никогда не было, а хуже, чем в 2012-м уже, наверно, и не будет.
Go to the top of the page
  Insert nick Quick quote
+Quote Post
post Nov 1 2019, 19:41:23
Post #56

necrophilosopher
**********
Group: Металариец
Posts: 1,136
Releases: 0
From: Ад-на-Земле
On Forums: 15 years 1 month
Thanks: 1043 time(s)
Uzbekistan


Хороший/плохой - это вкусовщина. Громкий/тихий - это совсем же другое, техническое. Это можно измерить. Звук на альбоме громкий вполне! Чуть за 10 дБ на пиках. Тем мне и странны отзывы о нехватке громкости, потому что её там достаточно более чем. Была бы ещё выше - это уже зашкал.


Go to the top of the page
  Insert nick Quick quote
+Quote Post
post Nov 1 2019, 19:49:45
Post #57

Девять Литров
*********
Group: Металариец
Posts: 942
Releases: 0
From: Somewhere along nowhere
On Forums: 5 years 5 months
Thanks: 926 time(s)
United States Minor Outlying Islands


ЦИТАТА(6666666 @ Nov 1 2019, 20:36:18) *
Да не, тогда очевидно, что это изначально группа так свелась галимо. У них в принципе хорошего звука никогда не было, а хуже, чем в 2012-м уже, наверно, и не будет.


Звук у них от альбома к альбому разный, мне нравится все, но немного меньше нравится на Ithyphallic и наверно Nefren-Ka.
На этом альбоме звук просто до лоска вылизан и отполирован.
На 2012 звук кристально чистый, от чего все инструменты, без преувеличения, производят шизоидное впечатление. Если мне, например, не нравится что-то в звучании, но при этом материал заходит на ура, я себе думаю как подстроить тональность под себя, либо задумаюсь, что у меня с ушами что то не так.
Но кричать на весь мир о своих проблемах... Не лучшее решение собственной проблемы. Тем более перекладывать вину на других (IMG:style_emoticons/default/1488.gif)


Go to the top of the page
  Insert nick Quick quote
+Quote Post
post Nov 1 2019, 19:52:16
Post #58

Ледоруб
**************
Group: Металариец
Posts: 33,345
Releases: 0
From: Санкт-Петербург
On Forums: 14 years 5 months
Thanks: 11675 time(s)
Russian Federation


ЦИТАТА(Lux @ 1st November 2019 - 21:41:23) *
Звук на альбоме громкий вполне!

Сам по себе да, но я выше говорил именно про ощущение дисбаланса, когда одно звучит громче другого.

ЦИТАТА(quicksand @ 1st November 2019 - 21:49:45) *
На 2012 звук кристально чистый

Пыльный и немощный.
Go to the top of the page
  Insert nick Quick quote
+Quote Post
post Nov 1 2019, 19:54:59
Post #59

Девять Литров
*********
Group: Металариец
Posts: 942
Releases: 0
From: Somewhere along nowhere
On Forums: 5 years 5 months
Thanks: 926 time(s)
United States Minor Outlying Islands


ЦИТАТА(6666666 @ Nov 1 2019, 20:52:16) *
Сам по себе да, но я выше говорил именно про ощущение дисбаланса, когда одно звучит громче другого.
Пыльный и немощный.


Наверное мы разное представление имеем о звуке, равно как и ожидания наши от музыки сабжа отличаются.
Go to the top of the page
  Insert nick Quick quote
+Quote Post
post Nov 1 2019, 20:25:30
Post #60

**************
Group: Металариец
Posts: 2,556
Releases: 28
From: Хунта-Сіті
On Forums: 17 years 4 days
Thanks: 3713 time(s)
Ukraine


Дослушал тут. Господи Осирисе, "не то что, зашло, а прям залетело" (с) (IMG:style_emoticons/default/pray.gif)
Пока ни один новый для меня альбом Найла так не заходил с первого раза (2007-ой не в счет, он вышел почти сразу после моего знакомства с группой).
Звук самый годный минимум со времен 2009-го. Действительно чуть тише, чем на прошлых, но это скорей от того, что высокие приглушили.
Новый вокалист (вокалисты? на архивах указано, что и новый гитарист и басила вокалят) хороший, под Далласа явно работает, часто даже забываешь, что он свалил.
Немного по первой прослушке смутили некоторые нехарактерные ранее атмосферности не то под Септифлеш, не то вообще, не знаю, под КОФ, прости господи.
В целом, думаю, изменения в составе на пользу и пошли. Либо новый гитарист чего внес, либо Карл без Далласа так расстарался. Вроде по частям и все как всегда, а в целом куда симпатичнее смотрится, чем было в последнее время.
Единственное, что я бы автора облог сменил бы наконец. Не ужасно конечно, но на ранних альбомах куда более душевно смотрелось. Хотя, не исключаю, что это в полномочиях лейбла вообще.
ЦИТАТА(6666666 @ Nov 1 2019, 21:04:57) *
Нет, они субъективны
Пофиксил, не благодари.


Go to the top of the page
  Insert nick Quick quote
+Quote Post

8 Pages V  < 1 2 3 4 > » 
Reply to this topicStart new topic
2 User(s) are reading this topic (2 Guests and 0 Anonymous Users)
0 Members:

 



- Lo-Fi Version Support form
Copyrights and abuse reports form
Time is now: 22nd February 2024 - 14:28:43