Welcome Guest ( Log In | Register )

> Forum rules / Правила раздела

Here go releases which can't go to New releases forums due lack of information, stolen links or incorrect data and just founded in other sites links with minimum info. Reissue of this releases through Add release form with added/corrected data, info and own links highly welcomed.

Сюда уходят релизы, не пропущенные в основные релизные форумы по причинам отсутствия, недостаточности или неверности/некорректности сопровождающей информации, содержащие ссылки, указывающие на файлы, залитые не автором темы, а так же просто найденные где-то ссылки с минимумом информации. Переоформление тем отсюда через форму Добавления релиза с перезаливкой ссылок крайне приветствуется.

 
Reply to this topicStart new topic
> Every Rage I Seek! - Atonement (2019), Deathcore/Modern Metal
post Nov 3 2019, 23:20:43
Post #1

Маньяк
**********
Group: Металариец
Posts: 1,442
Releases: 241
On Forums: 11 years 10 months
Thanks: 4976 time(s)
Russian Federation


(IMG:http://metalarea.org/images/audiocovers/2019_Nov/acov_tid329816_thumb.jpg)

*Artist: Every Rage I Seek!
*Album: Atonement
*Year: 2019
*Genre: Deathcore/Modern Metal
*Country: Singapore (IMG:http://metalarea.org/forum/style_images/flags/Singapore.png)
*Format: mp3@CBR320kbps
*Size: 81MB

Tracklist:
01. Fury 0:57
02. The Average Man 4:18
03. Scorched Earth 4:34
04. Atonement 4:59
05. A Fallen's Epitaph 4:30
06. The Tyrant 4:20
07. Sapiens 3:24
08. Doctrines of Man 3:29
09. Every Rage I Seek 4:58
******************************
Total playing time: 35:29

(IMG:http://metalarea.org/images/youtube.png)


Extended info
Ammar Hamizan Bass
Rasul Ramli Drums
Musthaqim Zainal Guitars
Azhar Harsono Vocals (2006-present)
Firdaus Guitars (2013-present)


Technical info
(IMG:http://metalarea.org/images/spectrogram/2019_Nov/dff0af3281b7bb7462b4fabac972f0ea.png)
Input File: 01-Fury.mp3
Channels : 2
Sample Rate : 44100
Precision : 16-bit
Duration : 00:00:57.92 = 2554228 samples = 4343.93 CDDA sectors
File Size : 2.32M
Bit Rate : 320k
Sample Encoding: MPEG audio (layer I, II or III)
Comments :
Title=Fury
Artist=Every Rage I Seek!
Album=Atonement
Tracknumber=1
Year=2019
Genre=Deathcore / Modern Metal



Register
Go to the top of the page
  Insert nick Quick quote
+Quote Post

Reply to this topicStart new topic
1 User(s) are reading this topic (1 Guests and 0 Anonymous Users)
0 Members:

 



- Lo-Fi Version Support form
Copyrights and abuse reports form
Time is now: 21st September 2020 - 19:44:16