Welcome Guest ( Log In | Register )

> Mortuary - The Autophagous Reign (2019), Death/Thrash Metal
post Nov 7 2019, 12:09:13
Post #1

Правь статус, ####!111
**************
Group: Металариец
Posts: 21,272
Releases: 14552
From: Г.Харьков
On Forums: 7 years 10 months
Thanks: 259666 time(s)
Unknown


(IMG:http://metalarea.org/images/audiocovers/2019_Nov/acov_tid329972_thumb.jpg)

*Artist: Mortuary
*Album: The Autophagous Reign
*Year: 2019
*Genre: Death/Thrash Metal
*Country: France (IMG:http://metalarea.org/forum/style_images/flags/France.png)
*Format: mp3@CBR320kbps
*Size: 115MB

Tracklist:
1. Delete / Replace 02:00
2. The Sapiens Order 03:40
3. A Curse in Disguise 03:41
4. Dominate Modus Operandi 04:07
5. Disposable 03:16
6. Eternal 04:38
7. Onwards to the Terminus 05:36
8. Recycled 03:41
9. Memorial in Vivo 07:06
10. Cheptel 01:49
11. Monuments 07:13
******************************
Total playing time: 46:47




Extended info
Jean-Noël Verbecq Bass
Patrick Germonville Vocals
Alexis Baudin Guitars
Yohann Voirin Drums
Bastien Legras Guitars



Technical info
(IMG:http://metalarea.org/images/spectrogram/2019_Nov/35460f2d8a3f8aa77848e087a72bd863.png)
Input File: 04 Dominate Modus Operandi.mp3
Channels : 2
Sample Rate : 44100
Precision : 16-bit
Duration : 00:04:07.16 = 10899668 samples = 18536.9 CDDA sectors
File Size : 10.6M
Bit Rate : 343k
Sample Encoding: MPEG audio (layer I, II or III)
Comments :
Title=Dominate Modus Operandi
Artist=Mortuary
Album=The Autophagous Reign
Tracknumber=4/11
Year=2019
Genre=Rock
Discnumber=1/1



Register


Go to the top of the page
  Insert nick Quick quote
+Quote Post
 
Start new topic
Replies (1 - 2)
post Nov 10 2019, 20:13:42
Post #2

Group: Дух
Posts: 7
Releases: 1
On Forums: 3 years 5 months
Thanks: 6 time(s)
Russian Federation


Потрясный дэт/трэш с пулеметной скоростью. Высшие рекомендации!!!

Потрясный дэт/трэш с пулеметной скоростью. Высшие рекомендации!!!


Thanks:
Go to the top of the page
  Insert nick Quick quote
+Quote Post
post Nov 26 2019, 11:50:46
Post #3

Schuldinerist
**************
Group: Металариец
Posts: 10,527
Releases: 33
From:
On Forums: 12 years 11 months
Thanks: 6726 time(s)
Russian Federation


Французы отличаются от однофамильцев прострелянной буквой О в названии, и музыка у них не меняется с годами...
Если нравится Mortuary - Agony In Red (2002), то можно и этот слухануть.
Скучновато, но драйв есть.
7/10


Thanks:
(1) DarkHorde,
Go to the top of the page
  Insert nick Quick quote
+Quote Post

Reply to this topicStart new topic
2 User(s) are reading this topic (2 Guests and 0 Anonymous Users)
0 Members:

 



- Lo-Fi Version Support form
Copyrights and abuse reports form
Time is now: 5th April 2020 - 04:22:24