Welcome Guest ( Log In | Register )

> Releases Upload / Добавление релизов

Добавить релиз тут / Click here to add release
Рекомендованные обменники / Recommended file shares

> Boreal Hymn - Tundra [demo] (2019), Folk/Pagan Metal
post Nov 9 2019, 16:03:19
Post #1

Правь статус, ####!111
**************
Group: Металариец
Posts: 19,524
Releases: 13212
From: Г.Харьков
On Forums: 7 years 6 months
Thanks: 227852 time(s)
Unknown


(IMG:http://metalarea.org/images/audiocovers/2019_Nov/acov_tid330104_thumb.jpg)

*Artist: Boreal Hymn
*Album: Tundra [demo]
*Year: 2019
*Genre: Folk/Pagan Metal
*Country: Canada (IMG:http://metalarea.org/forum/style_images/flags/Canada.png)
*Format: mp3@CBR320kbps
*Size: 46MB

Tracklist:
1. Labrynthian Graves 05:00
2. Glimmer In The Umbra 05:11
3. Banner Of Grief 03:52
4. Defiance Against The Breath Of Gods 05:59
******************************
Total playing time: 20:02



Extended info


Technical info
(IMG:http://metalarea.org/images/spectrogram/2019_Nov/5d047bd52f4f3b419d2d6e84c6daf7b6.png)
Input File: 02 - Glimmer in the Umbra.mp3
Channels : 2
Sample Rate : 44100
Precision : 16-bit
Duration : 00:05:11.19 = 13723347 samples = 23339 CDDA sectors
File Size : 12.5M
Bit Rate : 322k
Sample Encoding: MPEG audio (layer I, II or III)
Comments :
Title=Glimmer in the Umbra
Artist=Boreal Hymn
Album=Tundra (Demo)
Tracknumber=2
Year=2019-11-08
Genre=Alternative; Indie Rock; Metal
Discnumber=1



Register


Go to the top of the page
  Insert nick Quick quote
+Quote Post
 
Start new topic
Replies (1 - 2)
post Nov 10 2019, 07:52:47
Post #2

Семь Литров
*******
Group: Металариец
Posts: 780
Releases: 0
From: Черкассы
On Forums: 7 years 11 months
Thanks: 106 time(s)
Ukraine


Demonstration of four songs ("TUNDRA"), in which the worlds of dark, Gothic, atmospheric heavy metal are mixed with the ancient sounds of tribal folk music and ritual combat mantras.
Go to the top of the page
  Insert nick Quick quote
+Quote Post
post Nov 11 2019, 21:28:12
Post #3

Ёлд ХеллоВяйне
Group Icon
Group: V.I.P
Posts: 28,316
Releases: 132
From: Питер
On Forums: 13 years 3 weeks
Thanks: 16092 time(s)
Russian Federation


Приятное меланхоличное камлание. Если это демка, имеет смысл последить за проектом.


Thanks:
Go to the top of the page
  Insert nick Quick quote
+Quote Post

Reply to this topicStart new topic
1 User(s) are reading this topic (1 Guests and 0 Anonymous Users)
0 Members:

 



- Lo-Fi Version Support form
Copyrights and abuse reports form
Time is now: 18th November 2019 - 15:10:48