Welcome Guest ( Log In | Register )

> Boreal Hymn - Tundra [demo] (2019), Folk/Pagan Metal
post Nov 9 2019, 16:03:19
Post #1

Правь статус, ####!111
**************
Group: Металариец
Posts: 21,852
Releases: 15059
From: Г.Харьков
On Forums: 8 years 2 weeks
Thanks: 272878 time(s)
Unknown


(IMG:http://metalarea.org/images/audiocovers/2019_Nov/acov_tid330104_thumb.jpg)

*Artist: Boreal Hymn
*Album: Tundra [demo]
*Year: 2019
*Genre: Folk/Pagan Metal
*Country: Canada (IMG:http://metalarea.org/forum/style_images/flags/Canada.png)
*Format: mp3@CBR320kbps
*Size: 46MB

Tracklist:
1. Labrynthian Graves 05:00
2. Glimmer In The Umbra 05:11
3. Banner Of Grief 03:52
4. Defiance Against The Breath Of Gods 05:59
******************************
Total playing time: 20:02



Extended info


Technical info
(IMG:http://metalarea.org/images/spectrogram/2019_Nov/5d047bd52f4f3b419d2d6e84c6daf7b6.png)
Input File: 02 - Glimmer in the Umbra.mp3
Channels : 2
Sample Rate : 44100
Precision : 16-bit
Duration : 00:05:11.19 = 13723347 samples = 23339 CDDA sectors
File Size : 12.5M
Bit Rate : 322k
Sample Encoding: MPEG audio (layer I, II or III)
Comments :
Title=Glimmer in the Umbra
Artist=Boreal Hymn
Album=Tundra (Demo)
Tracknumber=2
Year=2019-11-08
Genre=Alternative; Indie Rock; Metal
Discnumber=1



Register


Go to the top of the page
  Insert nick Quick quote
+Quote Post
 
Start new topic
Replies (1 - 5)
post Nov 10 2019, 07:52:47
Post #2

Восемь Литров
********
Group: Металариец
Posts: 858
Releases: 0
From: Черкассы
On Forums: 8 years 5 months
Thanks: 122 time(s)
Ukraine


Demonstration of four songs ("TUNDRA"), in which the worlds of dark, Gothic, atmospheric heavy metal are mixed with the ancient sounds of tribal folk music and ritual combat mantras.
Go to the top of the page
  Insert nick Quick quote
+Quote Post
post Nov 11 2019, 21:28:12
Post #3

Ёлд ХеллоВяйне
Group Icon
Group: V.I.P
Posts: 29,665
Releases: 137
From: Питер
On Forums: 13 years 6 months
Thanks: 17564 time(s)
Russian Federation


Приятное меланхоличное камлание. Если это демка, имеет смысл последить за проектом.


Thanks:
Go to the top of the page
  Insert nick Quick quote
+Quote Post
post May 4 2020, 08:53:42
Post #4

И Ван Дамм По Делам Вашим!
**************
Group: Металариец
Posts: 19,033
Releases: 26
On Forums: 11 years 10 months
Thanks: 10611 time(s)
Honduras


Glimmer In The Umbra- прочел как Гимлер. (IMG:style_emoticons/default/1488.gif) А вот эта штукенция мне понравилась.Может полноценный альбом зашел бы хуже , но демка в 20 минут слушается на одном дыхании.Музыка просто завораживает.
Go to the top of the page
  Insert nick Quick quote
+Quote Post
post May 4 2020, 08:56:08
Post #5

Правь статус, ####!111
**************
Group: Металариец
Posts: 46,395
Releases: 716
On Forums: 10 years 11 months
Thanks: 38895 time(s)
Russian Federation


Рус, фолкером стал? (IMG:style_emoticons/default/smile1.gif)
Go to the top of the page
  Insert nick Quick quote
+Quote Post
post May 4 2020, 09:48:59
Post #6

И Ван Дамм По Делам Вашим!
**************
Group: Металариец
Posts: 19,033
Releases: 26
On Forums: 11 years 10 months
Thanks: 10611 time(s)
Honduras


ЦИТАТА(vosmidesijatye @ May 4 2020, 10:56:08) *
Рус, фолкером стал? (IMG:style_emoticons/default/smile1.gif)

Не, кандидатов слушаю. (IMG:style_emoticons/default/1488.gif)
Go to the top of the page
  Insert nick Quick quote
+Quote Post

Reply to this topicStart new topic
1 User(s) are reading this topic (1 Guests and 0 Anonymous Users)
0 Members:

 



- Lo-Fi Version Support form
Copyrights and abuse reports form
Time is now: 25th May 2020 - 22:08:46