Welcome Guest ( Log In | Register )

 
Reply to this topicStart new topic
> Headrot - Human Buffet (2016), Death Metal (D)
post Nov 9 2019, 17:01:25
Post #1

Правь статус, ####!111
**************
Group: Металариец
Posts: 19,546
Releases: 13235
From: Г.Харьков
On Forums: 7 years 6 months
Thanks: 228117 time(s)
Unknown


(IMG:http://metalarea.org/images/audiocovers/2019_Nov/acov_tid330105_thumb.jpg)

*Artist: Headrot
*Album: Human Buffet
*Year: 2016
*Genre: Death Metal
*Country: United States (IMG:http://metalarea.org/forum/style_images/flags/United%20States.png)
*Format: mp3@CBR320kbps
*Size: 71MB

Tracklist:
1. Sleepless Bloodlust 03:59
2. Removing Flesh from Bone 02:51
3. Sucking Up Your Own Guts 03:43
4. Feasting upon the Flesh 03:51
5. Hammer to the Head 02:57
6. Cease to Exist 03:33
7. Pigs in Worship 04:56
8. Pathways to the Flesh 04:23
******************************
Total playing time: 30:13




Extended info
В Лоу
Skip Bradshaw Drums
Mike Brown Guitars
Brian Frechette Vocals
Brian "Saton" Hall Bass


Technical info
(IMG:http://metalarea.org/images/spectrogram/2019_Nov/56f21b7c62084eaa7ddfd14deb563efc.png)
Input File: 03 - Sucking Up Your Own Guts.mp3
Channels : 2
Sample Rate : 44100
Precision : 16-bit
Duration : 00:03:44.08 = 9881928 samples = 16806 CDDA sectors
File Size : 9.17M
Bit Rate : 327k
Sample Encoding: MPEG audio (layer I, II or III)
Comments :
Title=Sucking Up Your Own Guts
Artist=Headrot
Album=Human Buffet
Tracknumber=03
Year=2016
Genre=22



Register


Thanks:
Go to the top of the page
  Insert nick Quick quote
+Quote Post

Reply to this topicStart new topic
1 User(s) are reading this topic (1 Guests and 0 Anonymous Users)
0 Members:

 



- Lo-Fi Version Support form
Copyrights and abuse reports form
Time is now: 20th November 2019 - 10:49:30