Welcome Guest ( Log In | Register )

> Releases Upload / Добавление релизов

Добавить релиз тут / Click here to add release
Рекомендованные обменники / Recommended file shares

> Тиран - No Gods, No Masters [ep] (2019), Thrash Metal
post Nov 9 2019, 17:41:56
Post #1

Правь статус, ####!616
**************
Group: Металариец
Posts: 4,705
Releases: 3282
From: 55°35’N 38°08’E
On Forums: 11 years 4 months
Thanks: 62014 time(s)
Unknown


(IMG:http://metalarea.org/images/audiocovers/2019_Nov/acov_tid330106_thumb.jpg)

*Artist: Тиран
*Album: No Gods, No Masters [ep]
*Year: 2019
*Genre: Thrash Metal
*Country: Russian Federation (IMG:http://metalarea.org/forum/style_images/flags/Russian%20Federation.png)
*Format: mp3@CBR320kbps
*Size: 33MB

Tracklist:
1.No Gods, No Masters 03:26
2.Witchflight 04:07
3.Apocalyptic Tales (Live in Badland Club - Rostov-On-Don) 02:18
4.Metal Messiah (Live in Badland Club - Rostov-On-Don) 02:52
******************************
Total playing time: 12:43

Extended info
CD, Wings of Destruction (WOD 054)
Cardboard sleeve (Limited edition 500 copies.)
+ scans


Technical info
(IMG:http://metalarea.org/images/spectrogram/2019_Nov/76fdc235668650448d5f6d7542fb3b0e.png)
Input File: 01 No Gods, No Masters.mp3
Channels : 2
Sample Rate : 44100
Precision : 16-bit
Duration : 00:03:25.98 = 9083806 samples = 15448.6 CDDA sectors
File Size : 8.36M
Bit Rate : 325k
Sample Encoding: MPEG audio (layer I, II or III)
Comments :
Title=No Gods, No Masters
Artist=Тиран
Album=No Gods, No Masters
Tracknumber=1
Year=2019
Genre=Thrash Metal



Register


Go to the top of the page
  Insert nick Quick quote
+Quote Post
 
Start new topic
Replies (1 - 1)
post Nov 11 2019, 20:21:17
Post #2

Маньяк
**********
Group: Металариец
Posts: 1,492
Releases: 0
On Forums: 11 years 9 months
Thanks: 642 time(s)
Russian Federation


Witchflight - коверок на Sabbath джапанский
Go to the top of the page
  Insert nick Quick quote
+Quote Post

Reply to this topicStart new topic
1 User(s) are reading this topic (1 Guests and 0 Anonymous Users)
0 Members:

 



- Lo-Fi Version Support form
Copyrights and abuse reports form
Time is now: 18th November 2019 - 05:40:57