Welcome Guest ( Log In | Register )

> Releases Upload / Добавление релизов

Добавить релиз тут / Click here to add release
Рекомендованные обменники / Recommended file shares

 
Reply to this topicStart new topic
> Malefication - The Pain Elemental [demo] (2019), Death/Thrash Metal
post Nov 9 2019, 19:07:18
Post #1

Правь статус, ####!111
**************
Group: Металариец
Posts: 19,524
Releases: 13212
From: Г.Харьков
On Forums: 7 years 6 months
Thanks: 227748 time(s)
Unknown


(IMG:http://metalarea.org/images/audiocovers/2019_Nov/acov_tid330107_thumb.jpg)

*Artist: Malefication
*Album: The Pain Elemental [demo]
*Year: 2019
*Genre: Death/Thrash Metal
*Country: United States (IMG:http://metalarea.org/forum/style_images/flags/United%20States.png)
*Format: mp3@CBR320kbps
*Size: 73MB

Tracklist:
1. Icon of Iniquity 04:22
2. Habitual Evisceration 03:41
3. Diabolic Incisions 03:14
4. The Pain Elemental 04:13
5. Brutally Embalmed 05:12
6. In the Grave 03:13
7. Systematic Devourment 03:42
8. The Gate to Beyond 03:35
******************************
Total playing time: 31:12



Extended info
Devin Mason All instruments, Vocals


Technical info
(IMG:http://metalarea.org/images/spectrogram/2019_Nov/348d1a26bde44fd74e61d6ce420665f9.png)
Input File: 04 - The Pain Elemental.mp3
Channels : 2
Sample Rate : 44100
Precision : 16-bit
Duration : 00:04:13.74 = 11189978 samples = 19030.6 CDDA sectors
File Size : 10.3M
Bit Rate : 326k
Sample Encoding: MPEG audio (layer I, II or III)
Comments :
Title=The Pain Elemental
Artist=Malefication
Album=The Pain Elemental
Tracknumber=4
Year=2019-11-08
Discnumber=1



Register


Go to the top of the page
  Insert nick Quick quote
+Quote Post

Reply to this topicStart new topic
1 User(s) are reading this topic (1 Guests and 0 Anonymous Users)
0 Members:

 



- Lo-Fi Version Support form
Copyrights and abuse reports form
Time is now: 18th November 2019 - 05:55:43