Welcome Guest ( Log In | Register )

> Releases Upload / Добавление релизов

Добавить релиз тут / Click here to add release
Рекомендованные обменники / Recommended file shares

 
Reply to this topicStart new topic
> Kross Of Khaoss - Slay Pride (2019), Heavy Metal
post Nov 9 2019, 19:28:03
Post #1

Правь статус, ####!111
**************
Group: Металариец
Posts: 19,524
Releases: 13212
From: Г.Харьков
On Forums: 7 years 6 months
Thanks: 227846 time(s)
Unknown


(IMG:http://metalarea.org/images/audiocovers/2019_Nov/acov_tid330108_thumb.jpg)

*Artist: Kross Of Khaoss
*Album: Slay Pride
*Year: 2019
*Genre: Heavy Metal
*Country: Italy (IMG:http://metalarea.org/forum/style_images/flags/Italy.png)
*Format: mp3@CBR320kbps
*Size: 102MB

Tracklist:
1. Rest in Pieces 03:47
2. Machete Happens 05:50
3. Snowhite 05:09
4. Insatiable Lover 07:55
5. Undead Wishes 03:58
6. Bodygrinder 03:41
7. Slay Pride 05:36
8. Dehumanizer 03:34
9. Fire (Endless Silence) 03:48
10. Hunger 04:12
******************************
Total playing time: 47:30




Extended info
Mattia "El Mataio" Martignago - vocals
Alessandro "El Grindo" Pereni - guitar
Mauro "El Cerdo" Brunelli - bass
Pierpaolo "El Pinata" Roccabella - drums



Technical info
(IMG:http://metalarea.org/images/spectrogram/2019_Nov/b9db8ce8ae2606f4902ce01db8527ff1.png)
Input File: 04. Insatiable Lover.mp3
Channels : 2
Sample Rate : 44100
Precision : 16-bit
Duration : 00:07:55.85 = 20984941 samples = 35688.7 CDDA sectors
File Size : 19.3M
Bit Rate : 324k
Sample Encoding: MPEG audio (layer I, II or III)
Comments :
Title=Insatiable Lover
Artist=Kross of Khaoss
Album=Slay Pride
Tracknumber=4/10
Year=2019
Genre=9
Discnumber=1/1



Register


Go to the top of the page
  Insert nick Quick quote
+Quote Post

Reply to this topicStart new topic
1 User(s) are reading this topic (1 Guests and 0 Anonymous Users)
0 Members:

 



- Lo-Fi Version Support form
Copyrights and abuse reports form
Time is now: 18th November 2019 - 14:15:41