Welcome Guest ( Log In | Register )

> Releases Upload / Добавление релизов

Добавить релиз тут / Click here to add release
Рекомендованные обменники / Recommended file shares

 
Reply to this topicStart new topic
> Invaders - The Nights Of Terror [ep] (2019), Old School Thrash Metal
post Nov 9 2019, 20:00:26
Post #1

Правь статус, ####!111
**************
Group: Металариец
Posts: 19,546
Releases: 13223
From: Г.Харьков
On Forums: 7 years 6 months
Thanks: 228099 time(s)
Unknown


(IMG:http://metalarea.org/images/audiocovers/2019_Nov/acov_tid330109_thumb.jpg)

*Artist: Invaders
*Album: The Nights Of Terror [ep]
*Year: 2019
*Genre: Old School Thrash Metal
*Country: Norway (IMG:http://metalarea.org/forum/style_images/flags/Norway.png)
*Format: mp3@CBR320kbps
*Size: 77MB

Tracklist:
1. Punished by God 04:18
2. Thrash Metal Attack 03:38
3. Malice 04:35
4. Deathonator 03:09
5. Sick Reality 03:26
6. Butthole Ruination 07:50
7. Burial Grounds 06:02
******************************
Total playing time: 32:58



Extended info
Philip Earnshaw Bass
Einar Myhren Nilsson Drums
Gabriel Foorabally Nilsen Guitars
Julian Foorabally Nilsen Guitars (2015-present)



Technical info
(IMG:http://metalarea.org/images/spectrogram/2019_Nov/18f43f4dbe69ad4f973a0efc2346869b.png)
Input File: 03 - Malice.mp3
Channels : 2
Sample Rate : 44100
Precision : 16-bit
Duration : 00:04:35.19 = 12135835 samples = 20639.2 CDDA sectors
File Size : 11.2M
Bit Rate : 325k
Sample Encoding: MPEG audio (layer I, II or III)
Comments :
Title=Malice
Artist=Invaders
Album=The Nights of Terror
Tracknumber=3
Year=2019-10-18
Genre=Metal
Discnumber=1



Register


Go to the top of the page
  Insert nick Quick quote
+Quote Post

Reply to this topicStart new topic
1 User(s) are reading this topic (1 Guests and 0 Anonymous Users)
0 Members:

 



- Lo-Fi Version Support form
Copyrights and abuse reports form
Time is now: 20th November 2019 - 09:43:00