Welcome Guest ( Log In | Register )

> Releases Upload / Добавление релизов

Добавить релиз тут / Click here to add release
Рекомендованные обменники / Recommended file shares

 
Reply to this topicStart new topic
> Skullpture - Reborn In Decay (2019), Death/Thrash Metal
post Nov 10 2019, 00:40:02
Post #1

Правь статус, ####!111
**************
Group: Металариец
Posts: 19,546
Releases: 13223
From: Г.Харьков
On Forums: 7 years 6 months
Thanks: 228099 time(s)
Unknown


(IMG:http://metalarea.org/images/audiocovers/2019_Nov/acov_tid330112_thumb.jpg)

*Artist: Skullpture
*Album: Reborn In Decay
*Year: 2019
*Genre: Death/Thrash Metal
*Country: Chile (IMG:http://metalarea.org/forum/style_images/flags/Chile.png)
*Format: mp3@CBR320kbps
*Size: 76MB

Tracklist:
1. Downfall (Intro) 00:41
2. Nine Circles of Hell 04:05
3. Ritual Ancestral 03:05
4. Hunting Humans 03:46
5. Feast with the Death 04:22
6. Xenomorph 03:52
7. Morbid Dreams 03:25
8. Human Slaughterhouse 04:24
9. The Rotten Tree 03:55
10. Respite (Outro) 00:53
******************************
Total playing time: 32:28




Extended info
Daniel Rodríguez Bass (2009-present)
Pedro Donoso Guitars (2009-2011, 2017-present)
Francisco Sereño Drums (2017-present)
See also: ex-Azazeth, ex-Eriador
Francisco Quiero Vocals (2017-present)



Technical info
(IMG:http://metalarea.org/images/spectrogram/2019_Nov/312518e47d1cb8e7732b6e0228590a0c.png)
Input File: 05 - Feast with the Death.mp3
Channels : 2
Sample Rate : 44100
Precision : 16-bit
Duration : 00:04:22.15 = 11560947 samples = 19661.5 CDDA sectors
File Size : 10.6M
Bit Rate : 324k
Sample Encoding: MPEG audio (layer I, II or III)
Comments :
Title=Feast with the Death
Artist=SKULLPTURE
Album=Reborn in Decay
Tracknumber=5
Year=2019-11-07
Genre=Metal
Discnumber=1



Register


Go to the top of the page
  Insert nick Quick quote
+Quote Post

Reply to this topicStart new topic
1 User(s) are reading this topic (1 Guests and 0 Anonymous Users)
0 Members:

 



- Lo-Fi Version Support form
Copyrights and abuse reports form
Time is now: 20th November 2019 - 09:42:19