Welcome Guest ( Log In | Register )

> Releases Upload / Добавление релизов

Добавить релиз тут / Click here to add release
Рекомендованные обменники / Recommended file shares

 
Reply to this topicStart new topic
> Withered Fist - This Is My Mountain [ep] (2019), Stoner/Doom Metal
post Nov 10 2019, 07:23:27
Post #1

Cultist
**************
Group: Металариец
Posts: 4,161
Releases: 1316
From: Koenigsberg
On Forums: 12 years 10 months
Thanks: 8213 time(s)
Russian Federation


(IMG:http://metalarea.org/images/audiocovers/2019_Nov/acov_tid330116_thumb.jpg)

*Artist: Withered Fist
*Album: This Is My Mountain [ep]
*Year: 2019
*Genre: Stoner/Doom Metal
*Country: Ireland (IMG:http://metalarea.org/forum/style_images/flags/Ireland.png)
*Format: mp3@CBR320kbps
*Size: 60MB

Tracklist:
1. This Is My Mountain 08:42
2. The Dread 06:59
3. The Journey 10:5
******************************
Total playing time: 15:41



Technical info
(IMG:http://metalarea.org/images/spectrogram/2019_Nov/396fa05eea2141d0d01a3aec4b7f79fc.png) [/img]
Input File: 02 - The Dread.mp3
Channels : 2
Sample Rate : 44100
Precision : 16-bit
Duration : 00:06:59.16 = 18485000 samples = 31437.1 CDDA sectors
File Size : 16.8M
Bit Rate : 320k
Sample Encoding: MPEG audio (layer I, II or III)
Comments :
Title=The Dread
Artist=Withered Fist
Album=This Is My Mountain EP
Tracknumber=2
Year=2019
Genre=Stoner/Doom Metal



Register


Thanks:
Go to the top of the page
  Insert nick Quick quote
+Quote Post

Reply to this topicStart new topic
1 User(s) are reading this topic (1 Guests and 0 Anonymous Users)
0 Members:

 



- Lo-Fi Version Support form
Copyrights and abuse reports form
Time is now: 18th November 2019 - 04:36:39