Welcome Guest ( Log In | Register )

> Releases Upload / Добавление релизов

Добавить релиз тут / Click here to add release
Рекомендованные обменники / Recommended file shares

 
Reply to this topicStart new topic
> Radical Retard - Once I Woke Up (1993), Hardcore/Punk/Thrash Metal
post Nov 10 2019, 07:26:53
Post #1

Подвал
**************
Group: Металариец
Posts: 13,840
Releases: 7830
From: Far East (Khabarovsk)
On Forums: 10 years 9 months
Thanks: 76151 time(s)
Russian Federation


(IMG:http://metalarea.org/images/audiocovers/2019_Nov/acov_tid330118_thumb.jpg)

*Artist: Radical Retard
*Album: Once I Woke Up
*Year: 1993
*Genre: Hardcore/Punk/Thrash Metal
*Country: Netherlands (IMG:http://metalarea.org/forum/style_images/flags/Netherlands.png)
*Format: mp3@CBR320kbps
*Size: 94MB

Tracklist:
1. When Love 02:22
2. Pinball Mad 01:53
3. Why Is It Me 02:43
4. Spartacus 02:19
5. Befman 01:57
6. Elvis 02:56
7. Church 01:36
8. Radical Retard 03:41
9. Evil Ed 01:50
10. Summerdudes 02:15
11. Burning Furies 02:36
12. Puntje Bruin 02:57
13. Fruits Of Death 15:53
******************************
Total playing time: 44:58

(IMG:http://metalarea.org/images/youtube.png)

Technical info
(IMG:http://metalarea.org/images/spectrogram/2019_Nov/0841b73771b0755d513810d9be5c5e46.png)
Input File: 01-When Love.mp3
Channels : 2
Sample Rate : 44100
Precision : 16-bit
Duration : 00:02:22.09 = 6265949 samples = 10656.4 CDDA sectors
File Size : 9.26M
Bit Rate : 522k
Sample Encoding: MPEG audio (layer I, II or III)
Comments :
Title=When Love
Artist=Radical Retard
Album=Once I Woke Up
Tracknumber=01
Year=1993-01-07
Genre=Crossover



Register


Go to the top of the page
  Insert nick Quick quote
+Quote Post

Reply to this topicStart new topic
1 User(s) are reading this topic (1 Guests and 0 Anonymous Users)
0 Members:

 



- Lo-Fi Version Support form
Copyrights and abuse reports form
Time is now: 18th November 2019 - 15:06:06