Welcome Guest ( Log In | Register )

> Releases Upload / Добавление релизов

Добавить релиз тут / Click here to add release
Рекомендованные обменники / Recommended file shares

 
Reply to this topicStart new topic
> Goathawkbuffalo - Release The Beast [ep] (2017), Stoner Metal/Rock
post Nov 10 2019, 07:27:52
Post #1

Cultist
**************
Group: Металариец
Posts: 4,169
Releases: 1316
From: Koenigsberg
On Forums: 12 years 10 months
Thanks: 8234 time(s)
Russian Federation


(IMG:http://metalarea.org/images/audiocovers/2019_Nov/acov_tid330119_thumb.jpg)

*Artist: Goathawkbuffalo
*Album: Release The Beast [ep]
*Year: 2017
*Genre: Stoner Metal/Rock
*Country: Denmark (IMG:http://metalarea.org/forum/style_images/flags/Denmark.png)
*Format: mp3@CBR320kbps
*Size: 36MB

Tracklist:
1. Love Song Lullaby 03:59
2. Dirty Filthy Names 03:32
3. Mirror Queens 03:21
4. Wanted Man 04:56
******************************
Total playing time: 15:48



Technical info
(IMG:http://metalarea.org/images/spectrogram/2019_Nov/09018a8047ca572ceaba02337734322b.png)
Input File: 03 - Mirror Queens.mp3
Channels : 2
Sample Rate : 44100
Precision : 16-bit
Duration : 00:03:21.47 = 8884695 samples = 15110 CDDA sectors
File Size : 8.06M
Bit Rate : 320k
Sample Encoding: MPEG audio (layer I, II or III)
Comments :
Title=Mirror Queens
Artist=Goathawkbuffalo
Album=Release The Beast EP
Tracknumber=3
Year=2017
Genre=Sludge/Stoner Metal



Register


Thanks:
Go to the top of the page
  Insert nick Quick quote
+Quote Post

Reply to this topicStart new topic
1 User(s) are reading this topic (1 Guests and 0 Anonymous Users)
0 Members:

 



- Lo-Fi Version Support form
Copyrights and abuse reports form
Time is now: 18th November 2019 - 15:18:40