Welcome Guest ( Log In | Register )

> Releases Upload / Добавление релизов

Добавить релиз тут / Click here to add release
Рекомендованные обменники / Recommended file shares

> Goathawkbuffalo - Come To Temple (2019), Stoner Metal/Rock
post Nov 10 2019, 07:37:27
Post #1

Cultist
**************
Group: Металариец
Posts: 4,169
Releases: 1316
From: Koenigsberg
On Forums: 12 years 10 months
Thanks: 8234 time(s)
Russian Federation


(IMG:http://metalarea.org/images/audiocovers/2019_Nov/acov_tid330120_thumb.jpg)

*Artist: Goathawkbuffalo
*Album: Come To Temple
*Year: 2019
*Genre: Stoner Metal/Rock
*Country: Denmark (IMG:http://metalarea.org/forum/style_images/flags/Denmark.png)
*Format: mp3@CBR320kbps
*Size: 92MB

Tracklist:
1. Broken Whore 03:17
2. Come to Temple 03:54
3. Soil n Mud 05:12
4. The Ridge 04:24
5. Pretty Promise 03:35
6. Life is Chaos 03:30
7. Buried Alive 03:58
8. Chuck 02:44
9. Get Defensive 03:22
10. Pound 06:37
******************************
Total playing time: 40:33



Technical info
(IMG:http://metalarea.org/images/spectrogram/2019_Nov/1971ba283786d45200a48f64cb4cd573.png)
Input File: 07 - Buried Alive.mp3
Channels : 2
Sample Rate : 44100
Precision : 16-bit
Duration : 00:03:59.09 = 10543649 samples = 17931.4 CDDA sectors
File Size : 9.56M
Bit Rate : 320k
Sample Encoding: MPEG audio (layer I, II or III)
Comments :
Title=Buried Alive
Artist=Goathawkbuffalo
Album=Come To Temple
Tracknumber=7
Year=2019
Genre=Sludge/Stoner Metal



Register


Go to the top of the page
  Insert nick Quick quote
+Quote Post
 
Start new topic
Replies (1 - 1)
post Nov 10 2019, 12:35:27
Post #2

Cultist
**************
Group: Металариец
Posts: 4,169
Releases: 1316
From: Koenigsberg
On Forums: 12 years 10 months
Thanks: 8234 time(s)
Russian Federation


што происходит?
удаляются комментарии
сабж переносится в неформат
при том, что уж в слудге/стоунер метал/рок он точно попадает, то есть формат
Go to the top of the page
  Insert nick Quick quote
+Quote Post

Reply to this topicStart new topic
1 User(s) are reading this topic (1 Guests and 0 Anonymous Users)
0 Members:

 



- Lo-Fi Version Support form
Copyrights and abuse reports form
Time is now: 18th November 2019 - 14:35:14