Welcome Guest ( Log In | Register )

> Releases Upload / Добавление релизов

Добавить релиз тут / Click here to add release
Рекомендованные обменники / Recommended file shares

 
Reply to this topicStart new topic
> Yellow Snow - Music For The Asses [ep] (1989), Punk/Crossover/Thrash Metal
post Nov 10 2019, 07:39:38
Post #1

Подвал
**************
Group: Металариец
Posts: 13,839
Releases: 7830
From: Far East (Khabarovsk)
On Forums: 10 years 9 months
Thanks: 76150 time(s)
Russian Federation


(IMG:http://metalarea.org/images/audiocovers/2019_Nov/acov_tid330121_thumb.jpg)

*Artist: Yellow Snow
*Album: Music For The Asses [ep]
*Year: 1989
*Genre: Punk/Crossover/Thrash Metal
*Country: United States (IMG:http://metalarea.org/forum/style_images/flags/United%20States.png)
*Format: mp3@CBR320kbps
*Size: 21MB

Tracklist:
1. Underage Rage 01:57
2. Jock Party 01:05
3. Party With Your Pants Down 02:29
4. Showdown At The Hoedown 01:33
5. Plastic Bitch 00:52
6. Breakfast With Satan 03:05
******************************
Total playing time: 11:01

Technical info
(IMG:http://metalarea.org/images/spectrogram/2019_Nov/889b239d58ac4209b7e5b55c12121223.png)
Input File: 01-Underage Rage.mp3
Channels : 2
Sample Rate : 44100
Precision : 16-bit
Duration : 00:01:57.32 = 5173856 samples = 8799.07 CDDA sectors
File Size : 4.69M
Bit Rate : 320k
Sample Encoding: MPEG audio (layer I, II or III)
Comments :
Title=Underage Rage
Artist=Yellow Snow
Album=Music for the Asses 7"
Tracknumber=01
Year=1989
Genre=Crossover



Register


Go to the top of the page
  Insert nick Quick quote
+Quote Post

Reply to this topicStart new topic
1 User(s) are reading this topic (1 Guests and 0 Anonymous Users)
0 Members:

 



- Lo-Fi Version Support form
Copyrights and abuse reports form
Time is now: 18th November 2019 - 14:47:06