Welcome Guest ( Log In | Register )

> Releases Upload / Добавление релизов

Добавить релиз тут / Click here to add release
Рекомендованные обменники / Recommended file shares

 
Reply to this topicStart new topic
> Hell Came Home - Eve Of Damnation (2019), Groove Metal
post Nov 10 2019, 07:43:56
Post #1

Cultist
**************
Group: Металариец
Posts: 4,169
Releases: 1316
From: Koenigsberg
On Forums: 12 years 10 months
Thanks: 8234 time(s)
Russian Federation


(IMG:http://metalarea.org/images/audiocovers/2019_Nov/acov_tid330122_thumb.jpg)

*Artist: Hell Came Home
*Album: Eve Of Damnation
*Year: 2019
*Genre: Groove Metal
*Country: United States (IMG:http://metalarea.org/forum/style_images/flags/United%20States.png)
*Format: mp3@CBR320kbps
*Size: 103MB

Tracklist:
1. Blinded 4:11
2. Down to None 4:00
3. Drag the Waters 5:02
4. End in Sight 4:27
5. My Dichotomy 4:07
6. Subservient 4:05
7. Butterfly on the Wheel 3:55
8. Reign on You 5:20
9. Eve of Damnation 6:29
10. Forced to Nothing 7:01
******************************
Total playing time: 48:37



Technical info
(IMG:http://metalarea.org/images/spectrogram/2019_Nov/341b8d3f2e6922440f9325614881a54c.png)
Input File: 07 - Butterfly On The Wheel.mp3
Channels : 2
Sample Rate : 44100
Precision : 16-bit
Duration : 00:03:54.73 = 10351417 samples = 17604.5 CDDA sectors
File Size : 9.44M
Bit Rate : 322k
Sample Encoding: MPEG audio (layer I, II or III)
Comments :
Title=Butterfly On The Wheel
Artist=Hell Came Home
Album=Eve Of Damnation
Tracknumber=7
Year=2019
Genre=Groove Metal



Register


Thanks:
Go to the top of the page
  Insert nick Quick quote
+Quote Post

Reply to this topicStart new topic
1 User(s) are reading this topic (1 Guests and 0 Anonymous Users)
0 Members:

 



- Lo-Fi Version Support form
Copyrights and abuse reports form
Time is now: 18th November 2019 - 14:58:38