Welcome Guest ( Log In | Register )

> Releases Upload / Добавление релизов

Добавить релиз тут / Click here to add release
Рекомендованные обменники / Recommended file shares

 
Reply to this topicStart new topic
> Skullord - In Death [demo] (2019), Stoner/Doom Metal
post Nov 10 2019, 07:47:39
Post #1

Cultist
**************
Group: Металариец
Posts: 4,169
Releases: 1316
From: Koenigsberg
On Forums: 12 years 10 months
Thanks: 8234 time(s)
Russian Federation


(IMG:http://metalarea.org/images/audiocovers/2019_Nov/acov_tid330123_thumb.jpg)

*Artist: Skullord
*Album: In Death [demo]
*Year: 2019
*Genre: Stoner/Doom Metal
*Country: Brazil (IMG:http://metalarea.org/forum/style_images/flags/Brazil.png)
*Format: mp3@CBR320kbps
*Size: 57MB

Tracklist:
1. (Intro) The Death's Bell Tones 02:34 instrumental
2. Corpse 05:20
3. Procession 04:50
4. Lying in the Frost (Burial) 05:11
5. (Interlude) Ad Sepulcrum 01:09 instrumental
6. The Dead City 04:47
7. (Outro) Beyond the Grave 01:29 instrumental
******************************
Total playing time: 25:20



Technical info
(IMG:http://metalarea.org/images/spectrogram/2019_Nov/d94fba312594f5a15f6274ef36b79f8a.png)
Input File: 04 - Lying In The Frost (Burial).mp3
Channels : 2
Sample Rate : 44100
Precision : 16-bit
Duration : 00:05:11.40 = 13732564 samples = 23354.7 CDDA sectors
File Size : 12.5M
Bit Rate : 320k
Sample Encoding: MPEG audio (layer I, II or III)
Comments :
Title=Lying In The Frost (Burial)
Artist=Skullord
Album=In Death (Demo)
Tracknumber=4
Year=2019
Genre=Stoner/Doom Metal



Register


Go to the top of the page
  Insert nick Quick quote
+Quote Post

Reply to this topicStart new topic
1 User(s) are reading this topic (1 Guests and 0 Anonymous Users)
0 Members:

 



- Lo-Fi Version Support form
Copyrights and abuse reports form
Time is now: 18th November 2019 - 15:10:57