Welcome Guest ( Log In | Register )

> Releases Upload / Добавление релизов

Добавить релиз тут / Click here to add release
Рекомендованные обменники / Recommended file shares

 
Reply to this topicStart new topic
> All Of The Dirt All At Once - Vire (2018), Instrumental Stoner Metal
post Nov 10 2019, 07:54:37
Post #1

Cultist
**************
Group: Металариец
Posts: 4,170
Releases: 1319
From: Koenigsberg
On Forums: 12 years 10 months
Thanks: 8282 time(s)
Russian Federation


(IMG:http://metalarea.org/images/audiocovers/2019_Nov/acov_tid330124_thumb.jpg)

*Artist: All Of The Dirt All At Once
*Album: Vire
*Year: 2018
*Genre: Instrumental Stoner Metal
*Country: Australia (IMG:http://metalarea.org/forum/style_images/flags/Australia.png)
*Format: mp3@CBR320kbps
*Size: 72MB

Tracklist:
1.They Burnt My Car 06:28
2.Bomb It Up, Boy 01:36
3.I Used To See Japanese Doom Bands At Pony 02:23
4.Funnigan's Irish Bar 02:51
5.Don't Push Anyone In The River 03:49
6.Fuckin' Hell (I'm A Banana) 01:45
7.The Lone Pone 03:42
8.Black Dirt 01:39
9.Filler 01:18
10.I'm Just Gonna Go Take A Look Over Here 01:41
11.I Keep Coming Up Over Every Horizon 04:00
******************************
Total playing time: 31:12



Technical info
(IMG:http://metalarea.org/images/spectrogram/2019_Nov/a46cdce6f808a15f952159bb21286f06.png)
Input File: 05 - Don't Push Anyone In The River.mp3
Channels : 2
Sample Rate : 44100
Precision : 16-bit
Duration : 00:03:50.02 = 10144058 samples = 17251.8 CDDA sectors
File Size : 9.25M
Bit Rate : 322k
Sample Encoding: MPEG audio (layer I, II or III)
Comments :
Title=Don't Push Anyone In The River
Artist=All Of The Dirt All At Once
Album=VIRE
Tracknumber=5
Year=2018
Genre=Instrumental Stoner Metal



Register


Thanks:
Go to the top of the page
  Insert nick Quick quote
+Quote Post

Reply to this topicStart new topic
1 User(s) are reading this topic (1 Guests and 0 Anonymous Users)
0 Members:

 



- Lo-Fi Version Support form
Copyrights and abuse reports form
Time is now: 20th November 2019 - 10:49:41