Welcome Guest ( Log In | Register )

> Releases Upload / Добавление релизов

Добавить релиз тут / Click here to add release
Рекомендованные обменники / Recommended file shares

> Belfast 6 Pack - A Shot At The Sun (2019), Southern Metal
post Nov 10 2019, 07:58:17
Post #1

Cultist
**************
Group: Металариец
Posts: 4,169
Releases: 1316
From: Koenigsberg
On Forums: 12 years 10 months
Thanks: 8234 time(s)
Russian Federation


(IMG:http://metalarea.org/images/audiocovers/2019_Nov/acov_tid330125_thumb.jpg)

*Artist: Belfast 6 Pack
*Album: A Shot At The Sun
*Year: 2019
*Genre: Southern Metal
*Country: United States (IMG:http://metalarea.org/forum/style_images/flags/United%20States.png)
*Format: mp3@CBR320kbps
*Size: 99MB

Tracklist:
01. Tell Me While You Sin 03:43
02. Blight 04:11
03. Scream My Love 06:34
04. Constraint 05:16
05. Close The Distance 04:46
06. Hurt 03:28
07. Firecracker Woman 03:16
08. Wasted Away 03:43
09. American Mari 03:18
10. Rise To Fall 05:06
******************************
Total playing time: 43:21

Technical info
(IMG:http://metalarea.org/images/spectrogram/2019_Nov/3289bbb6ce9bcce64ea4d4bfb4adb980.png)
Input File: 06 - Hurt.mp3
Channels : 2
Sample Rate : 44100
Precision : 16-bit
Duration : 00:03:28.08 = 9176328 samples = 15606 CDDA sectors
File Size : 8.38M
Bit Rate : 322k
Sample Encoding: MPEG audio (layer I, II or III)
Comments :
Title=Hurt
Artist=Belfast 6 Pack
Album=A Shot At The Sun
Tracknumber=6
Year=2019
Genre=Southern Metal



Register


Thanks:
Go to the top of the page
  Insert nick Quick quote
+Quote Post
 
Start new topic
Replies (1 - 1)
post Nov 10 2019, 15:54:50
Post #2

Четыре Литра
****
Group: Металариец
Posts: 394
Releases: 0
From: Мурманск
On Forums: 9 years 7 months
Thanks: 493 time(s)
Russian Federation



Превью
Go to the top of the page
  Insert nick Quick quote
+Quote Post

Reply to this topicStart new topic
1 User(s) are reading this topic (1 Guests and 0 Anonymous Users)
0 Members:

 



- Lo-Fi Version Support form
Copyrights and abuse reports form
Time is now: 18th November 2019 - 15:37:11