Welcome Guest ( Log In | Register )

> Releases Upload / Добавление релизов

Добавить релиз тут / Click here to add release
Рекомендованные обменники / Recommended file shares

> Belfast 6 Pack - One Short Of Halfway (2017), Southern Metal/Rock
post Nov 10 2019, 08:02:31
Post #1

Cultist
**************
Group: Металариец
Posts: 4,169
Releases: 1316
From: Koenigsberg
On Forums: 12 years 10 months
Thanks: 8234 time(s)
Russian Federation


(IMG:http://metalarea.org/images/audiocovers/2019_Nov/acov_tid330126_thumb.jpg)

*Artist: Belfast 6 Pack
*Album: One Short Of Halfway
*Year: 2017
*Genre: Southern Metal/Rock
*Country: United States (IMG:http://metalarea.org/forum/style_images/flags/United%20States.png)
*Format: mp3@CBR320kbps
*Size: 103MB

Tracklist:
01. Comfort in Madness 3:57
02. Cataclysm 4:02
03. Copperhead Road 3:52
04. Black Limo 4:00
05. One Short of Halfway 4:05
06. This Time Forgotten 5:24
07. Live Laugh Love Fuck 3:26
08. Bottom Feeder 3:51
09. Fool Hearted 4:45
10. Tales from Beyond 7:11
******************************
Total playing time: 44:33

Technical info
(IMG:http://metalarea.org/images/spectrogram/2019_Nov/f6d27adec94a71bf5bbb408c19057cde.png)
Input File: 02 - Cataclysm.mp3
Channels : 2
Sample Rate : 44100
Precision : 16-bit
Duration : 00:04:01.68 = 10658088 samples = 18126 CDDA sectors
File Size : 9.79M
Bit Rate : 324k
Sample Encoding: MPEG audio (layer I, II or III)
Comments :
Title=Cataclysm
Artist=Belfast 6 Pack
Album=One Short Of Halfway
Tracknumber=2/10
Year=2017
Genre=Southern Metal



Register


Thanks:
Go to the top of the page
  Insert nick Quick quote
+Quote Post
 
Start new topic
Replies (1 - 1)
post Nov 10 2019, 15:56:23
Post #2

Четыре Литра
****
Group: Металариец
Posts: 394
Releases: 0
From: Мурманск
On Forums: 9 years 7 months
Thanks: 493 time(s)
Russian Federation


Go to the top of the page
  Insert nick Quick quote
+Quote Post

Reply to this topicStart new topic
1 User(s) are reading this topic (1 Guests and 0 Anonymous Users)
0 Members:

 



- Lo-Fi Version Support form
Copyrights and abuse reports form
Time is now: 18th November 2019 - 15:50:12