Welcome Guest ( Log In | Register )

> Releases Upload / Добавление релизов

Добавить релиз тут / Click here to add release
Рекомендованные обменники / Recommended file shares

 
Reply to this topicStart new topic
> Abominaut - Illuminaut (2018), Groove Metal
post Nov 10 2019, 08:06:50
Post #1

Cultist
**************
Group: Металариец
Posts: 4,170
Releases: 1319
From: Koenigsberg
On Forums: 12 years 10 months
Thanks: 8281 time(s)
Russian Federation


(IMG:http://metalarea.org/images/audiocovers/2019_Nov/acov_tid330127_thumb.jpg)

*Artist: Abominaut
*Album: Illuminaut
*Year: 2018
*Genre: Groove Metal
*Country: United States (IMG:http://metalarea.org/forum/style_images/flags/United%20States.png)
*Format: mp3@CBR320kbps
*Size: 75MB

Tracklist:
1. Dreamcage 03:12
2. The Caste 03:16
3. You Had One Job To Do 03:29
4. The Business 03:45
5. Throw the Bones 03:07
6. Humans Hunting Humans 03:26
7. Goddamn Monkeys 03:27
8. Spans 06:25
9. Get Down (bonus track) 02:41
******************************
Total playing time: 32:48



Technical info
(IMG:http://metalarea.org/images/spectrogram/2019_Nov/f1b53810c0fc3fbbd2929050a61727ac.png)
Input File: 04 - The Business.mp3
Channels : 2
Sample Rate : 44100
Precision : 16-bit
Duration : 00:03:45.48 = 9943580 samples = 16910.9 CDDA sectors
File Size : 9.06M
Bit Rate : 322k
Sample Encoding: MPEG audio (layer I, II or III)
Comments :
Title=The Business
Artist=Abominaut
Album=Illuminaut
Tracknumber=4
Year=2018
Genre=Groove Metal



Register


Thanks:
Go to the top of the page
  Insert nick Quick quote
+Quote Post

Reply to this topicStart new topic
1 User(s) are reading this topic (1 Guests and 0 Anonymous Users)
0 Members:

 



- Lo-Fi Version Support form
Copyrights and abuse reports form
Time is now: 20th November 2019 - 09:42:31