Welcome Guest ( Log In | Register )

> Releases Upload / Добавление релизов

Добавить релиз тут / Click here to add release
Рекомендованные обменники / Recommended file shares

> Självmord - Schistostega (2019), Depressive Suicidal Black Metal/Depressive Rock
post Nov 10 2019, 09:08:23
Post #1

Group: Дух
Posts: 19
Releases: 15
On Forums: 1 week 4 days
Thanks: 175 time(s)
Unknown


(IMG:http://metalarea.org/images/audiocovers/2019_Nov/acov_tid330129_thumb.jpg)

*Artist: Självmord
*Album: Schistostega
*Year: 2019
*Genre: Depressive Suicidal Black Metal/Depressive Rock
*Country: Russian Federation (IMG:http://metalarea.org/forum/style_images/flags/Russian%20Federation.png)
*Format: mp3@CBR320kbps
*Size: 99MB

Tracklist:
01. Paranoia 04:09
02. Vid Skymningens Gräns (feat. Antisozial) (Vanhelga Cover) 05:12
03. Schistostega (feat. Antisozial) 06:20
04. Lypophrenia 04:55
05. Nebula 04:33
06. Hate 04:12
07. Forever And Never 03:08
08. Ruttna Träsk 04:24
09. Suicide Confession (feat. Antisozial) 06:14
******************************
Total playing time: 43:07





Extended info
Självmord project was created on 19 June 2016 by Confused and Unfriendly in Bryansk (Russian Federation) and combines elements of Swedish depressive black metal, depressive rock and ambient. The main themes are pain, depression and loneliness.


Technical info
(IMG:http://metalarea.org/images/spectrogram/2019_Nov/a4ae0c053396836d18da89acc1492a47.png)
Input File: 01. Paranoia.mp3
Channels : 2
Sample Rate : 48000
Precision : 16-bit
Duration : 00:04:09.10 = 11956752 samples ~ 18682.4 CDDA sectors
File Size : 10.5M
Bit Rate : 336k
Sample Encoding: MPEG audio (layer I, II or III)
Comments :
Title=Paranoia
Artist=Självmord
Album=Schistostega
Tracknumber=01
Year=2019



Register


Go to the top of the page
  Insert nick Quick quote
+Quote Post
 
Start new topic
Replies (1 - 1)
post Nov 10 2019, 13:51:42
Post #2

my church is black
********
Group: Металариец
Posts: 855
Releases: 1
On Forums: 2 years 5 months
Thanks: 491 time(s)
Cape Verde


А вот этот чувак уже скоро станет первым претендентом на звание "русский лайфлавер". С каждым альбомом всё лучше и лучше. Русскоязычный вокал несколько рвёт шаблон, но не критично.
Go to the top of the page
  Insert nick Quick quote
+Quote Post

Reply to this topicStart new topic
1 User(s) are reading this topic (1 Guests and 0 Anonymous Users)
0 Members:

 



- Lo-Fi Version Support form
Copyrights and abuse reports form
Time is now: 18th November 2019 - 14:25:46