Welcome Guest ( Log In | Register )

> Releases Upload / Добавление релизов

Добавить релиз тут / Click here to add release
Рекомендованные обменники / Recommended file shares

> Blakylle - Wo Uralte Wasser Fließen (2019), Pagan Metal
post Nov 10 2019, 12:59:00
Post #1

Правь статус, ####!111
**************
Group: Металариец
Posts: 19,524
Releases: 13212
From: Г.Харьков
On Forums: 7 years 6 months
Thanks: 227846 time(s)
Unknown


(IMG:http://metalarea.org/images/audiocovers/2019_Nov/acov_tid330131_thumb.jpg)

*Artist: Blakylle
*Album: Wo Uralte Wasser Fließen
*Year: 2019
*Genre: Pagan Metal
*Country: Germany (IMG:http://metalarea.org/forum/style_images/flags/Germany.png)
*Format: mp3@CBR320kbps
*Size: 93MB

Tracklist:
1. Aesir 04:50
2. Wo uralte Wasser fließen 05:31
3. Weiser Mann 05:51
4. Windmal 04:25
5. Der Stab 05:00
6. Die Frauen vom bleichen Wald 04:43
7. Skalde 04:45
8. Wanderer 05:07
******************************
Total playing time: 40:12




Extended info
Sandro Lukaszczyk Guitars, Songwriting, Lyrics
Albert Link Bass, Vocals
Adrian Wagner Vocals
Constantin Drums


Technical info
(IMG:http://metalarea.org/images/spectrogram/2019_Nov/05bf63ec7f692197f32c49e50c7b31ef.png)
Input File: 03 - Weiser Mann.mp3
Channels : 2
Sample Rate : 44100
Precision : 16-bit
Duration : 00:05:51.81 = 15514821 samples = 26385.8 CDDA sectors
File Size : 14.3M
Bit Rate : 325k
Sample Encoding: MPEG audio (layer I, II or III)
Comments :
Title=Weiser Mann
Artist=Blakylle
Album=Wo uralte Wasser fließen
Tracknumber=3
Year=2019



Register


Go to the top of the page
  Insert nick Quick quote
+Quote Post
 
Start new topic
Replies (1 - 1)
post Nov 11 2019, 03:56:08
Post #2

Правь статус, ####!111
**************
Group: Металариец
Posts: 19,524
Releases: 13212
From: Г.Харьков
On Forums: 7 years 6 months
Thanks: 227846 time(s)
Unknown


Cloud Mail 320
Register
Go to the top of the page
  Insert nick Quick quote
+Quote Post

Reply to this topicStart new topic
1 User(s) are reading this topic (1 Guests and 0 Anonymous Users)
0 Members:

 



- Lo-Fi Version Support form
Copyrights and abuse reports form
Time is now: 18th November 2019 - 14:15:31