Welcome Guest ( Log In | Register )

> Releases Upload / Добавление релизов

Добавить релиз тут / Click here to add release
Рекомендованные обменники / Recommended file shares

> Northerion - Sky Above//Sea Below (2019), Heavy Metal
post Nov 10 2019, 13:18:23
Post #1

Правь статус, ####!111
**************
Group: Металариец
Posts: 19,524
Releases: 13212
From: Г.Харьков
On Forums: 7 years 6 months
Thanks: 227723 time(s)
Unknown


(IMG:http://metalarea.org/images/audiocovers/2019_Nov/acov_tid330132_thumb.jpg)

*Artist: Northerion
*Album: Sky Above//Sea Below
*Year: 2019
*Genre: Heavy Metal
*Country: Germany (IMG:http://metalarea.org/forum/style_images/flags/Germany.png)
*Format: mp3@CBR320kbps
*Size: 112MB

Tracklist:
1. Intro 00:54
2. To the Raging Tides 06:08
3. Warriors 07:00
4. Valkyries Wings 04:08
5. Under a Blazing Sky 04:35
6. The Omen of Fire 04:15
7. Now That the Night Falls 04:43
8. Last Alliance 04:12
9. When the Blade for us Will Fall 04:33
10. She, the Ocean 05:40
******************************
Total playing time: 46:08



Extended info
Tim Grogor - vocals
Jorg Saathoff - guitars
Pascal Meinen - guitars
Harald Gerdes - bass
Nikolai Neumayer - drums



Technical info
(IMG:http://metalarea.org/images/spectrogram/2019_Nov/d8aac65b4ec9e3c9cea5b79fce28dc30.png)
Input File: 03 Warriors.mp3
Channels : 2
Sample Rate : 44100
Precision : 16-bit
Duration : 00:07:00.99 = 18565483 samples = 31574 CDDA sectors
File Size : 17.7M
Bit Rate : 336k
Sample Encoding: MPEG audio (layer I, II or III)
Comments :
Title=Warriors
Artist=Northerion
Album=Sky Above // Sea Below
Tracknumber=3/10
Year=2019
Genre=Metal
Discnumber=1/1



Register


Go to the top of the page
  Insert nick Quick quote
+Quote Post
 
Start new topic
Replies (1 - 1)
post Nov 11 2019, 03:57:22
Post #2

Правь статус, ####!111
**************
Group: Металариец
Posts: 19,524
Releases: 13212
From: Г.Харьков
On Forums: 7 years 6 months
Thanks: 227723 time(s)
Unknown


Cloud Mail 320
Register


Thanks:
(1) postal67,
Go to the top of the page
  Insert nick Quick quote
+Quote Post

Reply to this topicStart new topic
1 User(s) are reading this topic (1 Guests and 0 Anonymous Users)
0 Members:

 



- Lo-Fi Version Support form
Copyrights and abuse reports form
Time is now: 18th November 2019 - 04:04:30