Welcome Guest ( Log In | Register )

> Releases Upload / Добавление релизов

Добавить релиз тут / Click here to add release
Рекомендованные обменники / Recommended file shares

 
Reply to this topicStart new topic
> Prophettica - Eterno (2019), Heavy Metal
post Nov 10 2019, 13:35:16
Post #1

Правь статус, ####!111
**************
Group: Металариец
Posts: 19,524
Releases: 13212
From: Г.Харьков
On Forums: 7 years 6 months
Thanks: 227846 time(s)
Unknown


(IMG:http://metalarea.org/images/audiocovers/2019_Nov/acov_tid330133_thumb.jpg)

*Artist: Prophettica
*Album: Eterno
*Year: 2019
*Genre: Heavy Metal
*Country: Brazil (IMG:http://metalarea.org/forum/style_images/flags/Brazil.png)
*Format: mp3@CBR320kbps
*Size: 68MB

Tracklist:
1. Intro Vale Da Morte
2. A Cura
3. Eterno
4. Amanha
5. Nunca Desistir
6. Toda Dor
7. Julgamento
******************************
Total playing time: 29:17



Extended info
Rodolfo Alencar Vocal
Ronaldo Depestilli Baixo
Junior Tavares guitarra
Alexandre Santana Bateria e voz


Technical info
(IMG:http://metalarea.org/images/spectrogram/2019_Nov/89f2ae981faf4f067c7c9177f8ea5849.png)
Input File: 04 - Amanhã.mp3
Channels : 2
Sample Rate : 44100
Precision : 16-bit
Duration : 00:05:14.30 = 13860454 samples = 23572.2 CDDA sectors
File Size : 12.7M
Bit Rate : 324k
Sample Encoding: MPEG audio (layer I, II or III)
Comments :
Title=Amanhã
Artist=Prophettica
Album=Eterno
Tracknumber=4
Year=2019



Register


Go to the top of the page
  Insert nick Quick quote
+Quote Post

Reply to this topicStart new topic
1 User(s) are reading this topic (1 Guests and 0 Anonymous Users)
0 Members:

 



- Lo-Fi Version Support form
Copyrights and abuse reports form
Time is now: 18th November 2019 - 14:19:27