Welcome Guest ( Log In | Register )

> Releases Upload / Добавление релизов

Добавить релиз тут / Click here to add release
Рекомендованные обменники / Recommended file shares

 
Reply to this topicStart new topic
> The Konstellation - The Vision And The Voice (2019), Progressive Death/Black Metal
post Nov 10 2019, 14:14:08
Post #1

Правь статус, ####!111
**************
Group: Металариец
Posts: 19,524
Releases: 13212
From: Г.Харьков
On Forums: 7 years 6 months
Thanks: 227848 time(s)
Unknown


(IMG:http://metalarea.org/images/audiocovers/2019_Nov/acov_tid330134_thumb.jpg)

*Artist: The Konstellation
*Album: The Vision And The Voice
*Year: 2019
*Genre: Progressive Death/Black Metal
*Country: Netherlands (IMG:http://metalarea.org/forum/style_images/flags/Netherlands.png)
*Format: mp3@CBR320kbps
*Size: 95MB

Tracklist:
1. Intro 02:11
2. Sun and Moon 04:20
3. Passion Overture 08:21
4. The Vision and the Voice 04:43
5. Horns of White (And Black and Gold) 04:46
6. Mysteries of Zen 05:54
7. For I Am Peace 05:14
8. The Vesica Piscis 05:29
******************************
Total playing time: 40:58



Extended info
OM Vocals, Music, Lyrics
See also: ex-Tenowar, ex-Funebre (live), ex-Damned Spirits' Dance, ex-Baskíria
Botyánszki Balázs Drummer (2018-present)
See also: Sin of God
Æ Bass (2019-present)
See also: Paragon Zero, Svoid (live), ex-Darktempered, ex-Mallior, ex-Pagan Megalith, ex-Deathstruck, ex-Dispassion, ex-CageDeadDogs, ex-Kyliga Dälen, ex-Sickdom



Technical info
(IMG:http://metalarea.org/images/spectrogram/2019_Nov/93bd0e2e7cb5755b855891bbfdf05faa.png)
Input File: 04 - The Vision and the Voice.mp3
Channels : 2
Sample Rate : 44100
Precision : 16-bit
Duration : 00:04:43.60 = 12506804 samples = 21270.1 CDDA sectors
File Size : 11.5M
Bit Rate : 324k
Sample Encoding: MPEG audio (layer I, II or III)
Comments :
Title=The Vision and the Voice
Artist=The Konstellation
Album=The Vision and the Voice
Tracknumber=4
Year=2019-11-09
Genre=Metal
Discnumber=1



Register


Go to the top of the page
  Insert nick Quick quote
+Quote Post

Reply to this topicStart new topic
1 User(s) are reading this topic (1 Guests and 0 Anonymous Users)
0 Members:

 



- Lo-Fi Version Support form
Copyrights and abuse reports form
Time is now: 18th November 2019 - 14:30:32