Welcome Guest ( Log In | Register )

> Nachtgeist - Nocturnal Abstractions [demo] (2019), Black Metal
post Nov 10 2019, 15:12:12
Post #1

Правь статус, ####!111
**************
Group: Металариец
Posts: 2,779
Releases: 2484
From: Одесса
On Forums: 11 years 11 months
Thanks: 23545 time(s)
Ukraine


(IMG:http://metalarea.org/images/audiocovers/2019_Nov/acov_tid330135_thumb.jpg)

*Artist: Nachtgeist
*Album: Nocturnal Abstractions [demo]
*Year: 2019
*Genre: Black Metal
*Country: Unknown (IMG:http://metalarea.org/forum/style_images/flags/Unknown.png)
*Format: mp3@CBR320kbps
*Size: 37MB

Tracklist:
1. I
2. II - III
******************************
Total playing time: 14:53



Technical info
(IMG:http://metalarea.org/images/spectrogram/2019_Nov/29c1297649f76691921876e04196b105.png)
Input File: 02. II-III.mp3
Channels : 2
Sample Rate : 44100
Precision : 16-bit
Duration : 00:10:41.66 = 28297118 samples = 48124.4 CDDA sectors
File Size : 25.7M
Bit Rate : 320k
Sample Encoding: MPEG audio (layer I, II or III)
Comments :
Title=II/III
Artist=Nachtgeist
Album=Nocturnal Abstractions (Demo)
Tracknumber=2
Year=2019
Genre=138



Register


Go to the top of the page
  Insert nick Quick quote
+Quote Post
 
Start new topic
Replies (1 - 1)
post Dec 17 2019, 11:00:01
Post #2

antithesis
**************
Group: Металариец
Posts: 3,041
Releases: 33
From: VRN
On Forums: 10 years 5 days
Thanks: 1895 time(s)
Russian Federation


mirror, pls
Go to the top of the page
  Insert nick Quick quote
+Quote Post

Reply to this topicStart new topic
1 User(s) are reading this topic (1 Guests and 0 Anonymous Users)
0 Members:

 



- Lo-Fi Version Support form
Copyrights and abuse reports form
Time is now: 27th May 2020 - 16:36:27