Welcome Guest ( Log In | Register )

> Releases Upload / Добавление релизов

Добавить релиз тут / Click here to add release
Рекомендованные обменники / Recommended file shares

 
Reply to this topicStart new topic
> Nachtgeist - Nocturnal Abstractions [demo] (2019), Black Metal
post Nov 10 2019, 15:12:12
Post #1

Каждое ваше "Спасибо" помогает мне понять, что я делаю новости не напрасно.
**************
Group: Металариец
Posts: 2,047
Releases: 1798
From: Одесса
On Forums: 11 years 5 months
Thanks: 15614 time(s)
Ukraine


(IMG:http://metalarea.org/images/audiocovers/2019_Nov/acov_tid330135_thumb.jpg)

*Artist: Nachtgeist
*Album: Nocturnal Abstractions [demo]
*Year: 2019
*Genre: Black Metal
*Country: Unknown (IMG:http://metalarea.org/forum/style_images/flags/Unknown.png)
*Format: mp3@CBR320kbps
*Size: 37MB

Tracklist:
1. I
2. II - III
******************************
Total playing time: 14:53



Technical info
(IMG:http://metalarea.org/images/spectrogram/2019_Nov/29c1297649f76691921876e04196b105.png)
Input File: 02. II-III.mp3
Channels : 2
Sample Rate : 44100
Precision : 16-bit
Duration : 00:10:41.66 = 28297118 samples = 48124.4 CDDA sectors
File Size : 25.7M
Bit Rate : 320k
Sample Encoding: MPEG audio (layer I, II or III)
Comments :
Title=II/III
Artist=Nachtgeist
Album=Nocturnal Abstractions (Demo)
Tracknumber=2
Year=2019
Genre=138



Register


Go to the top of the page
  Insert nick Quick quote
+Quote Post

Reply to this topicStart new topic
1 User(s) are reading this topic (1 Guests and 0 Anonymous Users)
0 Members:

 



- Lo-Fi Version Support form
Copyrights and abuse reports form
Time is now: 18th November 2019 - 14:42:24