Welcome Guest ( Log In | Register )

 
Reply to this topicStart new topic
> Valac - Leaning Toward Bitter Misery (2019), Raw Black Metal
post Nov 10 2019, 17:12:26
Post #1

Правь статус, ####!111
**************
Group: Металариец
Posts: 2,024
Releases: 1602
From: Praha
On Forums: 6 years 3 months
Thanks: 40949 time(s)
Czech Republic


(IMG:http://metalarea.org/images/audiocovers/2019_Nov/acov_tid330137_thumb.jpg)

*Artist: Valac
*Album: Leaning Toward Bitter Misery
*Year: 2019
*Genre: Raw Black Metal
*Country: United States (IMG:http://metalarea.org/forum/style_images/flags/United%20States.png)
*Format: mp3@CBR320kbps
*Size: 73MB

Tracklist:
1. - 02:06
2. Vile Disease 05:14
3. Enshroud The Incurable 05:27
4. Coursing Through Veins 04:50
5. Tainted Blood Spilled From Man 04:02
6. Grasping to Forgotten Spirits 04:12
7. Departure 03:54
8. - 01:44
******************************
Total playing time: 31:29



Technical info
(IMG:http://metalarea.org/images/spectrogram/2019_Nov/19ee6ea7f848f1fd9cb29ff45c427a32.png)
Input File: 01. -.mp3
Channels : 2
Sample Rate : 44100
Precision : 16-bit
Duration : 00:02:06.10 = 5561010 samples = 9457.5 CDDA sectors
File Size : 5.08M
Bit Rate : 322k
Sample Encoding: MPEG audio (layer I, II or III)
Comments :
Title=-
Artist=Valac
Album=Leaning Toward Bitter Misery
Tracknumber=01/08
Year=2019
Genre=Black Metal



Register


Go to the top of the page
  Insert nick Quick quote
+Quote Post
post Nov 11 2019, 18:06:04
Post #2

Семь Литров
*******
Group: Металариец
Posts: 789
Releases: 0
On Forums: 12 years 8 months
Thanks: 342 time(s)
Belarus


перезалейте, плз
Go to the top of the page
  Insert nick Quick quote
+Quote Post

Reply to this topicStart new topic
1 User(s) are reading this topic (1 Guests and 0 Anonymous Users)
0 Members:

 



- Lo-Fi Version Support form
Copyrights and abuse reports form
Time is now: 16th July 2020 - 13:33:56