Welcome Guest ( Log In | Register )

> Releases Upload / Добавление релизов

Добавить релиз тут / Click here to add release
Рекомендованные обменники / Recommended file shares

 
Reply to this topicStart new topic
> Ravaged - Playtime (2019), Heavy Metal
post Nov 10 2019, 17:50:19
Post #1

MDM-Thrash Metal
**************
Group: Металариец
Posts: 9,072
Releases: 740
From: Одесса
On Forums: 12 years 3 months
Thanks: 19797 time(s)
Ukraine


(IMG:http://metalarea.org/images/audiocovers/2019_Nov/acov_tid330138_thumb.jpg)

*Artist: Ravaged
*Album: Playtime
*Year: 2019
*Genre: Heavy Metal
*Country: Sweden (IMG:http://metalarea.org/forum/style_images/flags/Sweden.png)
*Format: mp3@CBR320kbps
*Size: 86MB

Tracklist:
1. The Warriors 05:09
2. Wake Me Up 05:00
3. Touch Me 05:40
4. Now Your Gone 05:43
5. Scary Dreams 06:22
6. Legacy 04:30
7. Great Balls Of Fire (Jerry Lee Lewis cover) 03:14
******************************
Total playing time: 35:38


(IMG:http://metalarea.org/images/youtube.png)
Preview 3

Technical info
(IMG:http://metalarea.org/images/spectrogram/2019_Nov/2bf75797c1ecbb6db3ec81d6ad45fdb9.png)
Input File: 02 - Wake Me Up.mp3
Channels : 2
Sample Rate : 44100
Precision : 16-bit
Duration : 00:04:59.38 = 13202790 samples = 22453.7 CDDA sectors
File Size : 12.1M
Bit Rate : 323k
Sample Encoding: MPEG audio (layer I, II or III)
Comments :
Title=Wake Me Up
Artist=Ravaged
Album=Playtime
Tracknumber=2
Year=2019
Genre=Metal



Register


Go to the top of the page
  Insert nick Quick quote
+Quote Post

Reply to this topicStart new topic
1 User(s) are reading this topic (1 Guests and 0 Anonymous Users)
0 Members:

 



- Lo-Fi Version Support form
Copyrights and abuse reports form
Time is now: 18th November 2019 - 15:18:51