Welcome Guest ( Log In | Register )

> Releases Upload / Добавление релизов

Добавить релиз тут / Click here to add release
Рекомендованные обменники / Recommended file shares

> Blightmass - Severed From Your Soul (2019), Old School Death Metal
post Nov 10 2019, 19:05:12
Post #1

Правь статус, ####!111
**************
Group: Металариец
Posts: 19,524
Releases: 13212
From: Г.Харьков
On Forums: 7 years 6 months
Thanks: 227855 time(s)
Unknown


(IMG:http://metalarea.org/images/audiocovers/2019_Nov/acov_tid330139_thumb.jpg)

*Artist: Blightmass
*Album: Severed From Your Soul
*Year: 2019
*Genre: Old School Death Metal
*Country: International (IMG:http://metalarea.org/forum/style_images/flags/International.png)
*Format: mp3@CBR320kbps
*Size: 96MB

Tracklist:
1. Pale Child (intro) 01:51
2. My Embrace 04:03
3. Destruction Inevitable 03:28
4. Misery from Martyrdom 02:53
5. Invert Ascension 03:55
6. Severed from Your Soul 03:37
7. When He Wakes 02:22
8. Grave Hatred 04:41
9. Scorched Atrocity 02:47
10. They Will Listen to the Dead 05:20
11. To Have Bled the Price 04:06
12. Vision of Desolation (outro) 02:31
13. Black Star (Carcass cover) 03:29
******************************
Total playing time: 45:03




Extended info
France / USA

Ullerkens Bass (2019-present)
See also: ex-Purgatory Unleashed
Splathammer Drums (2019-present)
See also: Poisöncharge, Temple of Worms, Dysylumn (live), ex-Purgatory Unleashed
Nattewølf Guitars (2019-present)
See also: Wolfshade, ex-Purgatory Unleashed
Enteronecrophile Guitars (2019-present)
See also: Angel's Sperm, ex-Purgatory Unleashed
Jechael Vocals (2019-present)
See also: Diabolic, Nakhiel, Promethean Horde, The Absence (live), ex-Blastmasters, ex-Purgatory Unleashed, Lull Me to Larvae, ex-Amon, ex-Crimson Massacre, ex-Success Will Write Apocalypse Across the Sky, ex-After Death, ex-Evixion


Technical info
(IMG:http://metalarea.org/images/spectrogram/2019_Nov/68413a4b3de0b7202b0a9f751e0ed608.png)
Input File: 06. Severed from Your Soul.mp3
Channels : 2
Sample Rate : 44100
Precision : 16-bit
Duration : 00:03:37.35 = 9585311 samples = 16301.5 CDDA sectors
File Size : 8.80M
Bit Rate : 324k
Sample Encoding: MPEG audio (layer I, II or III)
Comments :
Title=Severed from Your Soul
Artist=BlightMass
Album=Severed from Your Soul
Tracknumber=6/13
Year=2019
Discnumber=1/1



Register


Go to the top of the page
  Insert nick Quick quote
+Quote Post
 
Start new topic
Replies (1 - 1)
post Nov 12 2019, 10:37:55
Post #2

Сталин придёт за тобой...
***********
Group: Металариец
Posts: 1,655
Releases: 0
From: Беларусь, Минск
On Forums: 12 years 4 months
Thanks: 788 time(s)
Belarus


Чувачки сочинили совсем не интересную музычку.
Go to the top of the page
  Insert nick Quick quote
+Quote Post

Reply to this topicStart new topic
1 User(s) are reading this topic (1 Guests and 0 Anonymous Users)
0 Members:

 



- Lo-Fi Version Support form
Copyrights and abuse reports form
Time is now: 18th November 2019 - 15:32:03