Welcome Guest ( Log In | Register )

> Releases Upload / Добавление релизов

Добавить релиз тут / Click here to add release
Рекомендованные обменники / Recommended file shares

> Runenwacht - Gjallar Erschallt (2019), Black Metal
post Nov 10 2019, 19:20:50
Post #1

Правь статус, ####!111
**************
Group: Металариец
Posts: 19,524
Releases: 13212
From: Г.Харьков
On Forums: 7 years 6 months
Thanks: 227851 time(s)
Unknown


(IMG:http://metalarea.org/images/audiocovers/2019_Nov/acov_tid330140_thumb.jpg)

*Artist: Runenwacht
*Album: Gjallar Erschallt
*Year: 2019
*Genre: Black Metal
*Country: Germany (IMG:http://metalarea.org/forum/style_images/flags/Germany.png)
*Format: mp3@CBR320kbps
*Size: 106MB

Tracklist:
1. MG42 02:25
2. Blutgeweiht 04:03
3. Gjallar erschallt 04:48
4. Lied der Seherin 04:31
5. Wilde Jagd 05:36
6. Als das Glück verschwand 05:34
7. Fleischopfer 04:34
8. Exekution Menschheit 05:30
9. Freija heile diese kranke Welt 06:05
10. Fuck Pax Christi 03:17
******************************
Total playing time: 46:23



Extended info
Rex Guitars, Bass, Vocals
Sturmkaiser Drums



Technical info
(IMG:http://metalarea.org/images/spectrogram/2019_Nov/03d815fd8a877ec266c0fe8eb0a5b090.png)
Input File: 05 - Wilde Jagd.mp3
Channels : 2
Sample Rate : 44100
Precision : 16-bit
Duration : 00:05:36.45 = 14837401 samples = 25233.7 CDDA sectors
File Size : 13.6M
Bit Rate : 323k
Sample Encoding: MPEG audio (layer I, II or III)
Comments :
Title=Wilde Jagd
Artist=Runenwacht
Album=Gjallar Erschallt
Tracknumber=5
Year=2019



Register


Go to the top of the page
  Insert nick Quick quote
+Quote Post
 
Start new topic
Replies (1 - 6)
post Nov 11 2019, 03:54:14
Post #2

Правь статус, ####!111
**************
Group: Металариец
Posts: 19,524
Releases: 13212
From: Г.Харьков
On Forums: 7 years 6 months
Thanks: 227851 time(s)
Unknown


Cloud Mail 320
Register


Go to the top of the page
  Insert nick Quick quote
+Quote Post
post Nov 12 2019, 12:17:13
Post #3

Правь статус, ####!111
**************
Group: Металариец
Posts: 44,079
Releases: 674
On Forums: 10 years 5 months
Thanks: 35356 time(s)
Russian Federation


Идею лого у Ксастур подтибзили.


Thanks:
Go to the top of the page
  Insert nick Quick quote
+Quote Post
post Nov 12 2019, 13:41:17
Post #4

sycamore trees
**************
Group: Металариец
Posts: 3,123
Releases: 0
On Forums: 3 years 9 months
Thanks: 1901 time(s)
Unknown


ЦИТАТА(vosmidesijatye @ 12th November 2019 - 16:17:13) *
Идею лого у Ксастур подтибзили.

ценитель, что по музыке то скажешь?
Go to the top of the page
  Insert nick Quick quote
+Quote Post
post Nov 12 2019, 13:44:01
Post #5

Правь статус, ####!111
**************
Group: Металариец
Posts: 44,079
Releases: 674
On Forums: 10 years 5 months
Thanks: 35356 time(s)
Russian Federation


Боевито звучащий блэк с не очень хорошим вокалом.
Go to the top of the page
  Insert nick Quick quote
+Quote Post
post Nov 12 2019, 15:47:08
Post #6

Два Литра
**
Group: Завсегдатай
Posts: 113
Releases: 0
On Forums: 3 years 3 months
Thanks: 9 time(s)
Unknown


вокал как раз то что надо, гитарок не хватает точно
Go to the top of the page
  Insert nick Quick quote
+Quote Post
post Nov 16 2019, 19:18:12
Post #7

Восемь Литров
********
Group: Металариец
Posts: 856
Releases: 0
From: Новосибирск
On Forums: 10 years 2 months
Thanks: 237 time(s)
Russian Federation


Нс метал какой-то, не блэк.
Go to the top of the page
  Insert nick Quick quote
+Quote Post

Reply to this topicStart new topic
1 User(s) are reading this topic (1 Guests and 0 Anonymous Users)
0 Members:

 



- Lo-Fi Version Support form
Copyrights and abuse reports form
Time is now: 18th November 2019 - 14:47:16