Welcome Guest ( Log In | Register )

> Releases Upload / Добавление релизов

Добавить релиз тут / Click here to add release
Рекомендованные обменники / Recommended file shares

> Answer From Cygnus - Surface (2019), Atmospheric Post-Black Metal
post Nov 10 2019, 19:27:13
Post #1

Правь статус, ####!111
**************
Group: Металариец
Posts: 3,995
Releases: 1019
From: Brazil
On Forums: 7 years 9 months
Thanks: 37798 time(s)
Brazil


(IMG:https://metalarea.org/images/audiocovers/2019_Nov/acov_tid330141_thumb.jpg)

*Artist: Answer From Cygnus
*Album: Surface
*Year: 2019
*Genre: Atmospheric Post-Black Metal
*Country: France (IMG:https://metalarea.org/forum/style_images/flags/France.png)
*Format: mp3@CBR320kbps
*Size: 114MB

Tracklist:
1. Surface 07:27
2. Du Vide et des souvenirs 06:31
3. L'automne hurle 08:16
4. Collapsar 09:47
5. La dialectique des sourds 09:28
6. Luminance 07:42
******************************
Total playing time: 49:11



Extended info
Lineup

Mist: Everything
See also: Les Chants de Nihil, ex-Legion Mortifere

Jerry: Guest Vocals on "L'automne hurle"
Lead Vocals on "La Dialectique des Sourds"
See also: Les Chants de Nihil, ex-Legion Mortifere


Technical info
(IMG:https://metalarea.org/images/spectrogram/2019_Nov/6a5f7290300cb48de99fb85004857348.png)
Input File: 02 Du Vide et des souvenirs.mp3
Channels : 2
Sample Rate : 44100
Precision : 16-bit
Duration : 00:06:31.07 = 17246363 samples = 29330.5 CDDA sectors
File Size : 15.6M
Bit Rate : 320k
Sample Encoding: MPEG audio (layer I, II or III)
Comments :
Title=Du Vide et des souvenirs
Artist=Answer from Cygnus
Album=Surface
Tracknumber=2
Year=2019



Register


Go to the top of the page
  Insert nick Quick quote
+Quote Post
 
Start new topic
Replies (1 - 2)
post Nov 16 2019, 12:07:27
Post #2

Три Литра
***
Group: Завсегдатай
Posts: 298
Releases: 4
On Forums: 12 years 7 months
Thanks: 242 time(s)
Russian Federation


Начинаешь слушать, даже не зная страну-происхожение группы, и сразу слышишь французов. Настолько от релиза веет французским блеком.
Атмосфера понравилась, merci pour votre travail
Go to the top of the page
  Insert nick Quick quote
+Quote Post
post Nov 16 2019, 14:33:29
Post #3

Шесть Литров
******
Group: Металариец
Posts: 539
Releases: 5
From: Ивантеевка, Московская область
On Forums: 11 years 11 months
Thanks: 174 time(s)
Russian Federation


Очень приятный, расслабляющий альбом, но не откровение.
Go to the top of the page
  Insert nick Quick quote
+Quote Post

Reply to this topicStart new topic
1 User(s) are reading this topic (1 Guests and 0 Anonymous Users)
0 Members:

 



- Lo-Fi Version Support form
Copyrights and abuse reports form
Time is now: 20th November 2019 - 10:25:02