Welcome Guest ( Log In | Register )

> Darktower - Obedientia (2019), Black/Death Metal
post Nov 10 2019, 19:52:34
Post #1

Правь статус, ####!111
**************
Group: Металариец
Posts: 23,950
Releases: 16823
From: Г.Харьков
On Forums: 8 years 6 months
Thanks: 320014 time(s)
Unknown


(IMG:http://metalarea.org/images/audiocovers/2019_Nov/acov_tid330142_thumb.jpg)

*Artist: Darktower
*Album: Obedientia
*Year: 2019
*Genre: Black/Death Metal
*Country: Brazil (IMG:http://metalarea.org/forum/style_images/flags/Brazil.png)
*Format: mp3@CBR320kbps
*Size: 90MB

Tracklist:
1. Punishment
2. Downfall
3. God Above Nothing
4. Highland Ceremony
5. Winged Snake Communion
6. Praxis Against Ignorance
7. Obedientia
8. Rites of Conscience
9. The Carnal Esplendour
10. ...as the Obedient Marches to the Abyss...
******************************
Total playing time: 41:42



Extended info
R. Ferreira Drums (2006-2016), Vocals (clean) (2006-present), Bass (2016-present)
See also: ex-Belial War, ex-Berkaial, ex-Vociferatus (live)
F. Gonçalves Vocals (2006-present)
See also: ex-Belial War, Uncrowned, ex-Impacto Profano (live), ex-Exhumed Christ
R. Casotto Guitars (2013-present)
See also: ex-Pagan Throne
R. Morais Guitars (2016-present)
R. Grilo Drums (2018-present)
See also: Gutted Souls (live)



Technical info
(IMG:http://metalarea.org/images/spectrogram/2019_Nov/f4bc4b083815c1927f8006a179fb9763.png)
Input File: 03. God Above Nothing.mp3
Channels : 2
Sample Rate : 44100
Precision : 16-bit
Duration : 00:05:14.20 = 13856000 samples = 23564.6 CDDA sectors
File Size : 12.7M
Bit Rate : 324k
Sample Encoding: MPEG audio (layer I, II or III)
Comments :
Title=God Above Nothing
Artist=DarkTower
Album=Obedientia
Tracknumber=3/10
Year=2019
Genre=17
Discnumber=1/1



Register


Go to the top of the page
  Insert nick Quick quote
+Quote Post
 
Start new topic
Replies (1 - 1)
post Nov 11 2019, 14:20:30
Post #2

Пять Литров
*****
Group: Металариец
Posts: 495
Releases: 0
From: Град Московский
On Forums: 12 years 10 months
Thanks: 128 time(s)
Russian Federation


Люблю такой Black-Death (Melodic)
Go to the top of the page
  Insert nick Quick quote
+Quote Post

Reply to this topicStart new topic
1 User(s) are reading this topic (1 Guests and 0 Anonymous Users)
0 Members:

 



- Lo-Fi Version Support form
Copyrights and abuse reports form
Time is now: 26th November 2020 - 16:42:51